<?xml version="1.0" standalone="no"?>
<!DOCTYPE svg PUBLIC "-//W3C//DTD SVG 1.1//EN" "http://www.w3.org/Graphics/SVG/1.1/DTD/svg11.dtd" >
<svg>
<metadata>
Created by FontForge 20120731 at Sat Sep  7 00:48:27 2019
 By www
Copyright (c) 1991-1998, Changzhou SinoType Technology Co., Ltd.  All rights reserved.
</metadata>
<defs>
<font id="STSong" horiz-adv-x="1000" vert-adv-y="1000" >
  <font-face 
    font-family="STSong"
    font-weight="400"
    font-stretch="normal"
    units-per-em="1000"
    panose-1="2 1 6 0 4 1 1 1 1 1"
    ascent="800"
    descent="-200"
    x-height="381"
    cap-height="628"
    bbox="-141 -315 1063 986"
    underline-thickness="20"
    underline-position="-123"
    unicode-range="U+0020-FFE5"
  />
<missing-glyph vert-adv-y="1301" 
 />
    <glyph glyph-name=".notdef" vert-adv-y="1301" 
 />
    <glyph glyph-name="glyph1" horiz-adv-x="0" vert-adv-y="1301" 
 />
    <glyph glyph-name="uni007F" horiz-adv-x="501" vert-adv-y="1301" 
 />
    <glyph glyph-name="space" unicode=" " horiz-adv-x="250" vert-adv-y="1301" 
 />
    <glyph glyph-name="exclam" unicode="!" horiz-adv-x="219" vert-adv-y="1301" 
d="M101 139l-16 281q-2 39 -8 75q-10 66 -10 87q0 24 12.5 38.5t31.5 14.5t31.5 -14.5t12.5 -38.5q0 -21 -10 -87q-5 -31 -8 -75l-18 -281h-18zM111 84q21 0 35.5 -14.5t14.5 -35.5t-14.5 -35.5t-35.5 -14.5t-35.5 14.5t-14.5 35.5t14.5 35.5t35.5 14.5z" />
    <glyph glyph-name="quotedbl" unicode="&#x22;" horiz-adv-x="406" vert-adv-y="1301" 
d="M103 392l-27 145q-11 57 -11 81q0 59 49 59q48 0 48 -59q0 -22 -11 -81l-27 -145h-21zM283 392l-27 145q-11 57 -11 81q0 59 49 59q48 0 48 -59q0 -22 -11 -81l-27 -145h-21z" />
    <glyph glyph-name="numbersign" unicode="#" horiz-adv-x="667" vert-adv-y="1301" 
d="M46 463h163l43 204h43l-43 -204h222l43 204h43l-43 -204h104v-43h-113l-41 -198h154v-43h-163l-41 -202h-44l43 202h-224l-41 -202h-44l42 202h-103v43h113l41 198h-154v43zM243 420l-42 -197h223l42 197h-223z" />
    <glyph glyph-name="dollar" unicode="$" horiz-adv-x="448" vert-adv-y="1301" 
d="M282 629q26 -5 48.5 -14.5t43 -26t25 -25t4.5 -17.5q0 -17 -9 -25.5t-21 -8.5q-19 0 -37 26q-28 41 -54 55l-4 -272q63 -39 95.5 -84t32.5 -90q0 -118 -132 -154l-2 -129h-21l2 125q-21 -5 -40 -5q-23 0 -33 1l-2 -121h-21l2 124q-46 7 -81.5 32t-35.5 53q0 14 8 21.5
t19 7.5q22 0 46 -29q20 -26 45 -40l4 274q-64 30 -93 68.5t-29 104.5q0 53 32.5 92.5t94.5 56.5l1 49h19l-1 -45q7 2 35 2q18 0 40 -3l1 46h19zM263 602q-18 7 -40 7q-15 0 -35 -3l-3 -236q44 -21 74 -38zM169 603q-39 -9 -62 -44.5t-23 -77.5q0 -34 20.5 -56.5t60.5 -44.5z
M253 14l5 244q-35 22 -74 41l-4 -277q23 -10 49 -10q12 0 24 2zM277 245l-3 -227q34 10 54.5 44t20.5 82q0 49 -72 101z" />
    <glyph glyph-name="percent" unicode="%" horiz-adv-x="823" vert-adv-y="1301" 
d="M179 -33l419 669h36l-423 -669h-32zM159 635q56 0 91 -46t35 -125q0 -73 -37.5 -121t-87.5 -48q-52 0 -88 45.5t-36 118.5q0 75 35.5 125.5t87.5 50.5zM162 312q37 0 52.5 34.5t15.5 108.5q0 89 -12.5 125t-55.5 36q-48 0 -59 -45.5t-11 -117.5q0 -70 16 -105.5t54 -35.5
zM791 155q0 -71 -36 -121t-90 -50q-53 0 -89.5 47.5t-36.5 116.5q0 70 35 122.5t93 52.5q56 0 90 -50t34 -118zM664 0q40 0 55.5 33.5t15.5 109.5q0 84 -12.5 122.5t-54.5 38.5q-52 0 -62 -49t-10 -114q0 -70 15.5 -105.5t52.5 -35.5z" />
    <glyph glyph-name="ampersand" unicode="&#x26;" horiz-adv-x="729" vert-adv-y="1301" 
d="M472 166q81 95 81 145q0 29 -42 41v12l192 13v-14q-44 -15 -85 -56.5t-132 -157.5q80 -110 142 -110q33 0 69 30q5 4 8 4q6 0 6 -9q0 -12 -9.5 -32t-35.5 -33.5t-58 -13.5q-44 0 -80 25t-89 82q-51 -54 -106 -81t-122 -27q-86 0 -135 50t-49 125q0 129 191 191
q-47 54 -59.5 82.5t-12.5 53.5q0 47 37.5 77.5t99.5 30.5q59 0 93.5 -30t34.5 -79q0 -87 -98 -125zM295 377q60 31 60 100q0 45 -21 70.5t-55 25.5q-29 0 -48 -17.5t-19 -43.5q0 -24 14.5 -48.5t68.5 -86.5zM233 332q-58 -20 -91 -61.5t-33 -89.5q0 -63 48 -101t116 -38
q89 0 150 68z" />
    <glyph glyph-name="quotesingle" unicode="'" horiz-adv-x="177" vert-adv-y="1301" 
d="M78 392l-27 145q-11 57 -11 81q0 59 49 59q48 0 48 -59q0 -22 -11 -81l-27 -145h-21z" />
    <glyph glyph-name="parenleft" unicode="(" horiz-adv-x="292" vert-adv-y="1301" 
d="M297 656l13 -26q-99 -91 -143 -193t-44 -236q0 -110 47.5 -218.5t136.5 -187.5l-12 -23q-101 73 -159.5 195.5t-58.5 249.5q0 128 58 249.5t162 189.5z" />
    <glyph glyph-name="parenright" unicode=")" horiz-adv-x="292" vert-adv-y="1301" 
d="M-6 656q104 -68 162 -189.5t58 -249.5q0 -127 -58.5 -249.5t-159.5 -195.5l-12 23q89 79 136.5 187.5t47.5 218.5q0 134 -44 236t-143 193z" />
    <glyph glyph-name="asterisk" unicode="*" horiz-adv-x="427" vert-adv-y="1301" 
d="M224 410q0 -59 4 -169h-37q3 78 3 168q-96 -55 -144 -86l-17 34q81 41 148 79q-100 58 -149 83l20 32q62 -41 142 -89q1 94 -2 169h38q-5 -88 -6 -170q97 57 146 89l19 -33l-149 -81l148 -81l-19 -32q-86 53 -145 87z" />
    <glyph glyph-name="plus" unicode="+" horiz-adv-x="667" vert-adv-y="1301" 
d="M71 331h240v242h43v-242h242v-43h-242v-239h-43v239h-240v43z" />
    <glyph glyph-name="comma" unicode="," horiz-adv-x="219" vert-adv-y="1301" 
d="M52 -174v22q42 17 67 48.5t25 54.5q0 18 -9 25.5t-40 7.5q-18 0 -29.5 11t-11.5 28q0 18 16 31.5t35 13.5q36 0 63 -25.5t27 -61.5q0 -50 -44.5 -98t-98.5 -57z" />
    <glyph glyph-name="hyphen" unicode="-" horiz-adv-x="313" vert-adv-y="1301" 
d="M38 217h237v-43h-237v43z" />
    <glyph glyph-name="period" unicode="." horiz-adv-x="219" vert-adv-y="1301" 
d="M110 -16q-22 0 -37 15t-15 37t15 37t37 15t37 -15t15 -37t-15 -37t-37 -15z" />
    <glyph glyph-name="slash" unicode="/" horiz-adv-x="500" vert-adv-y="1301" 
d="M400 696h43l-344 -831h-42z" />
    <glyph glyph-name="zero" unicode="0" horiz-adv-x="469" vert-adv-y="1301" 
d="M237 635q83 0 143.5 -93.5t60.5 -232.5q0 -138 -60.5 -231.5t-143.5 -93.5q-80 0 -142 92.5t-62 232.5q0 139 60.5 232.5t143.5 93.5zM237 7q74 0 102.5 73.5t28.5 228.5t-28.5 229t-102.5 74t-102.5 -74t-28.5 -229q0 -302 131 -302z" />
    <glyph glyph-name="one" unicode="1" horiz-adv-x="469" vert-adv-y="1301" 
d="M355 -3q-52 3 -117 3t-117 -3v16l52 9q35 7 35 39v494l-119 -77l-14 19q69 45 166 138h33v-574q0 -34 35 -40l46 -8v-16z" />
    <glyph glyph-name="two" unicode="2" horiz-adv-x="469" vert-adv-y="1301" 
d="M426 -3q-72 3 -204 3q-129 0 -200 -3q19 39 48 74t93 99q93 93 136 158.5t43 132.5q0 55 -34.5 89t-85.5 34q-50 0 -91 -34.5t-57 -97.5l-23 4q16 85 67 132t124 47t124 -48.5t51 -116.5t-47.5 -127.5t-143.5 -148.5q-51 -47 -127 -141h235q38 0 53.5 13.5t32.5 58.5h21z
" />
    <glyph glyph-name="three" unicode="3" horiz-adv-x="469" vert-adv-y="1301" 
d="M94 489l-18 10q29 69 70 102.5t103 33.5q56 0 94 -32t38 -71t-26.5 -74t-82.5 -77q73 5 117 -43t44 -123q0 -97 -69 -164t-176 -67q-69 0 -105 16.5t-36 38.5q0 10 9.5 18.5t20.5 8.5q17 0 39 -18q56 -42 95 -42q61 0 107.5 53t46.5 129q0 64 -31.5 105.5t-79.5 41.5
q-37 0 -76 -34l-11 19q20 18 44 36q110 81 110 137q0 41 -27.5 66t-68.5 25q-40 0 -75.5 -24.5t-55.5 -70.5z" />
    <glyph glyph-name="four" unicode="4" horiz-adv-x="469" vert-adv-y="1301" 
d="M326 635h24v-415h106v-46h-106v-190h-66v190h-256v33l119 174zM284 220v307q-136 -189 -208 -307h208z" />
    <glyph glyph-name="five" unicode="5" horiz-adv-x="469" vert-adv-y="1301" 
d="M380 566h-140q-78 0 -86 -3l-13 -183q44 21 90 21q82 0 139 -56t57 -146q0 -100 -70.5 -157.5t-160.5 -57.5q-50 0 -92 17.5t-42 38.5q0 10 9 20.5t25 10.5q11 0 18 -5q70 -53 113 -53q56 0 99 48.5t43 114.5q0 70 -43.5 116.5t-107.5 46.5q-28 0 -52.5 -9t-35.5 -25h-17
l19 320h109q75 0 99 2t34 15h15z" />
    <glyph glyph-name="six" unicode="6" horiz-adv-x="469" vert-adv-y="1301" 
d="M384 638l8 -19q-125 -47 -199.5 -160.5t-74.5 -243.5q0 -86 36 -147.5t88 -61.5q112 0 112 178q0 75 -29 117t-73 42q-17 0 -33 -7l-11 16q32 14 65 14q66 0 109.5 -50t43.5 -137q0 -83 -51.5 -139t-133.5 -56q-85 0 -138.5 66.5t-53.5 180.5q0 138 90.5 251.5
t244.5 155.5z" />
    <glyph glyph-name="seven" unicode="7" horiz-adv-x="469" vert-adv-y="1301" 
d="M46 625h385v-17q-34 -60 -121.5 -306.5t-96.5 -301.5h-33q48 207 193 564h-270q-25 0 -27 -13l-8 -42h-22v116z" />
    <glyph glyph-name="eight" unicode="8" horiz-adv-x="469" vert-adv-y="1301" 
d="M198 312q-121 60 -121 163q0 62 49.5 111t116.5 49q76 0 123 -41t47 -103q0 -54 -30 -87t-86 -61q92 -44 118 -89t26 -90q0 -73 -54.5 -126.5t-135.5 -53.5q-84 0 -134 46.5t-50 117.5q0 43 20 84.5t111 79.5zM275 355q41 19 63 55.5t22 79.5q0 53 -30.5 87.5t-84.5 34.5
q-49 0 -80 -33.5t-31 -82.5q0 -25 9 -49t49.5 -52t82.5 -40zM222 301q-51 -25 -73 -61.5t-22 -97.5t35 -97.5t88 -36.5q55 0 91.5 36.5t36.5 93.5q0 60 -36.5 96t-119.5 67z" />
    <glyph glyph-name="nine" unicode="9" horiz-adv-x="469" vert-adv-y="1301" 
d="M262 258q-28 -15 -59 -15q-64 0 -111.5 55.5t-47.5 137.5q0 84 54 141.5t131 57.5q87 0 140 -69t53 -179q0 -155 -94.5 -270t-242.5 -136l-4 22q127 25 198.5 131t71.5 262q0 104 -35 160.5t-95 56.5q-46 0 -75 -51t-29 -135q0 -69 28 -111t74 -42q16 0 34 5z" />
    <glyph glyph-name="colon" unicode=":" horiz-adv-x="219" vert-adv-y="1301" 
d="M55 345q0 22 16 38t38 16t38 -16t16 -38t-16 -38t-38 -16t-38 16t-16 38zM55 38q0 22 16 38t38 16t38 -16t16 -38t-16 -38t-38 -16t-38 16t-16 38z" />
    <glyph glyph-name="semicolon" unicode=";" horiz-adv-x="219" vert-adv-y="1301" 
d="M63 347q0 22 15 37t37 15t37 -15t15 -37t-15 -37t-37 -15t-37 15t-15 37zM50 -148v22q42 17 67 48.5t25 54.5q0 34 -33 34l-20 -1q-14 0 -25.5 12t-11.5 27q0 18 16 31.5t35 13.5q36 0 63 -25.5t27 -61.5q0 -50 -44.5 -98t-98.5 -57z" />
    <glyph glyph-name="less" unicode="&#x3c;" horiz-adv-x="667" vert-adv-y="1301" 
d="M595 70l-523 222v39l523 221v-47l-467 -193l467 -195v-47z" />
    <glyph glyph-name="equal" unicode="=" horiz-adv-x="667" vert-adv-y="1301" 
d="M72 446h523v-43h-523v43zM72 220h523v-44h-523v44z" />
    <glyph glyph-name="greater" unicode="&#x3e;" horiz-adv-x="667" vert-adv-y="1301" 
d="M72 552l523 -222v-39l-523 -221v47l466 194l-466 194v47z" />
    <glyph glyph-name="question" unicode="?" horiz-adv-x="365" vert-adv-y="1301" 
d="M121 148h-22l-17 159q24 11 44 11q91 0 129.5 27.5t38.5 81.5t-39 100.5t-86 46.5q-21 0 -52 -8q-18 -5 -33 -5q-41 0 -41 33q0 41 63 41q62 0 119 -45t81.5 -98.5t24.5 -98.5q0 -34 -14.5 -64.5t-38.5 -49.5t-44 -23t-58 -9q-50 -6 -52 -40zM114 -16q-21 0 -35.5 14.5
t-14.5 35.5t14.5 35.5t35.5 14.5t35.5 -14.5t14.5 -35.5t-14.5 -35.5t-35.5 -14.5z" />
    <glyph glyph-name="at" unicode="@" horiz-adv-x="917" vert-adv-y="1301" 
d="M744 431l-58 -195q-32 -113 -38 -140t-6 -42q0 -41 35 -41q43 0 92.5 41t82.5 117t33 155q0 134 -89 221.5t-228 87.5q-113 0 -210.5 -62.5t-153 -174.5t-55.5 -230q0 -109 47 -199.5t137 -141t199 -50.5q129 0 232 69.5t160 200.5h28q-47 -139 -163.5 -219.5
t-259.5 -80.5q-119 0 -219.5 58t-153.5 159t-53 217q0 123 59.5 236.5t169.5 178t233 64.5q105 0 185 -43.5t122 -124.5t42 -171q0 -87 -39.5 -173.5t-99 -128t-131.5 -41.5q-35 0 -54.5 17.5t-19.5 49.5q0 24 8 72q-113 -140 -191 -140q-36 0 -62.5 32.5t-26.5 82.5
q0 66 41.5 148.5t108 138t119.5 55.5q69 0 84 -68l16 54zM633 341q0 30 -17.5 50t-42.5 20q-38 0 -81.5 -45.5t-80 -128.5t-36.5 -130q0 -32 17 -51t41 -19q43 0 96 54.5t78.5 127t25.5 122.5z" />
    <glyph glyph-name="A" unicode="A" horiz-adv-x="677" vert-adv-y="1301" 
d="M224 284l-80 -232q-3 -10 -3 -16q0 -8 6 -12t25 -5l70 -5v-16q-19 2 -123 2t-123 -2v16l63 5q33 3 46 37l224 604h29l221 -597q7 -17 13 -23t22 -11l55 -17v-15q-51 3 -131 3t-131 -3v15l66 10q19 3 26.5 7t7.5 12q0 6 -5 20l-81 223h-197zM413 306l-93 258l-88 -258h181
z" />
    <glyph glyph-name="B" unicode="B" horiz-adv-x="615" vert-adv-y="1301" 
d="M13 605v17l59 3q188 10 220 10q112 0 171 -38.5t59 -110.5q0 -76 -108 -124q154 -42 154 -173q0 -54 -35 -99.5t-95.5 -68t-133.5 -22.5l-208 1h-71v16l63 12q19 4 27 14.5t8 39.5v484q0 16 -5.5 23t-39.5 10zM205 356q17 -3 78 -3q71 0 113.5 38.5t42.5 103.5
q0 55 -41 85.5t-118 30.5q-39 0 -75 -9v-246zM205 326v-224q0 -76 117 -76q64 0 112 44.5t48 102.5q0 80 -49.5 118.5t-151.5 38.5q-35 0 -76 -4z" />
    <glyph glyph-name="C" unicode="C" horiz-adv-x="635" vert-adv-y="1301" 
d="M601 138q-11 -61 -31 -129q-64 -25 -186 -25q-157 0 -249 86.5t-92 228.5q0 87 43.5 166t118 124.5t160.5 45.5q88 0 131 -8t83 -33q6 -48 5 -99h-19q-20 58 -67.5 88.5t-114.5 30.5q-105 0 -174 -86.5t-69 -223.5q0 -148 61.5 -223t182.5 -75q139 0 204 132h13z" />
    <glyph glyph-name="D" unicode="D" horiz-adv-x="771" vert-adv-y="1301" 
d="M119 551q0 24 -6 34t-23 13l-68 12v16q64 -2 156 3.5t130 5.5q98 0 155 -11t107.5 -40t83 -67.5t50.5 -88.5t18 -106q0 -94 -52 -180.5t-135 -114.5t-161 -28l-162 4h-200v16l78 17q16 3 22.5 13t6.5 38v464zM201 111q0 -32 34.5 -59.5t99.5 -27.5q115 0 201.5 75.5
t86.5 226.5q0 132 -90 208t-250 76q-54 0 -68 -10.5t-14 -48.5v-440z" />
    <glyph glyph-name="E" unicode="E" horiz-adv-x="656" vert-adv-y="1301" 
d="M633 162q-22 -92 -25 -165q-124 3 -292 3t-292 -3v17l72 5q17 1 23.5 7t6.5 28v503q0 24 -5.5 34.5t-19.5 11.5l-73 7v18q81 -3 269 -3q190 0 269 3q-3 -31 -3 -74q0 -33 2 -65h-13q-22 55 -34 78.5t-22 30.5t-27 7h-232q-17 0 -23 -9.5t-6 -32.5v-230h225q17 0 25 5.5
t12 24.5l13 70h20q-3 -59 -3 -120q0 -60 3 -120h-12l-22 78q-7 22 -20 30.5t-39 8.5h-202v-249q0 -22 8 -30.5t34 -8.5h222q30 0 50.5 9.5t42 39.5t48.5 91h20z" />
    <glyph glyph-name="F" unicode="F" horiz-adv-x="563" vert-adv-y="1301" 
d="M299 -4q-69 4 -138 4q-93 0 -138 -4v16l64 7q17 2 22.5 9.5t5.5 26.5v502q0 22 -4.5 32.5t-20.5 12.5l-59 7v18q45 -2 376 -2q88 0 131 2q-2 -26 -2 -79q0 -39 1 -65h-13q-22 74 -37 94t-46 20h-215q-17 0 -23 -9.5t-6 -32.5v-222h208q18 0 24.5 5.5t10.5 24.5l16 71h16
q-2 -37 -2 -110q0 -53 3 -111h-14l-21 69q-6 20 -16 24t-40 4h-185v-254q0 -26 8.5 -30.5t29.5 -6.5l64 -7v-16z" />
    <glyph glyph-name="G" unicode="G" horiz-adv-x="771" vert-adv-y="1301" 
d="M757 261l-65 -7q-17 -2 -23.5 -8t-6.5 -20v-111q0 -35 -2 -48t-9.5 -23.5t-47 -26t-91.5 -24.5t-108 -9q-164 0 -261 87t-97 227q0 149 107.5 243t276.5 94q133 0 222 -48l8 -120l-14 -3q-62 149 -200 149q-141 0 -221 -82t-80 -221q0 -121 82.5 -211.5t202.5 -90.5
q150 0 150 107v111q0 15 -7.5 21t-23.5 7l-96 7v18q77 -4 127 -4q99 0 177 4v-18z" />
    <glyph glyph-name="H" unicode="H" horiz-adv-x="760" vert-adv-y="1301" 
d="M560 568q0 20 -5 28.5t-17 9.5l-53 6v16q38 -4 169 -4q40 0 76 4v-16l-71 -10q-13 -2 -17 -9t-4 -26v-499q0 -21 4.5 -30t22.5 -12l77 -14v-16q-50 4 -153 4q-58 0 -111 -4v16l62 10q12 2 16 12t4 34v231h-359v-231q0 -25 4 -34.5t17 -11.5l62 -10v-16q-53 4 -111 4
q-103 0 -153 -4v16l77 14q16 3 21 12t5 30v500q0 20 -5 28.5t-17 9.5l-53 6v16q38 -4 171 -4q43 0 79 4v-16l-76 -10q-13 -2 -17 -9t-4 -26v-239h359v240z" />
    <glyph glyph-name="I" unicode="I" horiz-adv-x="354" vert-adv-y="1301" 
d="M139 54v517q0 17 -5.5 24t-19.5 8l-88 9v16q11 -3 210 -3q59 0 94 3v-17l-88 -9q-14 -1 -19.5 -7t-5.5 -24v-517q0 -17 5 -22.5t20 -6.5l88 -5v-24q-40 4 -152 4t-152 -4v24l88 5q15 2 20 7t5 22z" />
    <glyph glyph-name="J" unicode="J" horiz-adv-x="333" vert-adv-y="1301" 
d="M274 612l-49 -9q-14 -2 -18 -10t-4 -27v-474q0 -70 -13 -126t-40 -103t-53.5 -71.5t-54 -33t-68.5 -8.5q-62 0 -62 42q0 18 9 28.5t24 10.5q24 0 52 -25q20 -18 40 -18q28 0 51.5 32.5t30.5 74t7 193.5v481q0 14 -3.5 22t-10.5 10.5t-29 4.5l-59 6v16q25 -3 125 -3
q99 0 125 3v-16z" />
    <glyph glyph-name="K" unicode="K" horiz-adv-x="740" vert-adv-y="1301" 
d="M292 -4q-38 4 -129 4t-129 -4v16l63 9q14 2 19.5 9t5.5 24v520q0 17 -4.5 22t-20.5 7l-63 9v16q12 -3 181 -3q42 0 77 3v-16l-67 -9q-15 -1 -20 -6.5t-5 -22.5v-520q0 -16 5.5 -22.5t19.5 -8.5l67 -11v-16zM760 -4q-54 4 -149 4t-149 -4v16l71 12q16 2 16 10q0 7 -18 22
l-233 195q-46 38 -81 62q46 23 95 64l179 151q54 45 54 63q0 9 -14 11l-72 10v16q29 -3 122 -3t122 3v-16q-47 -4 -90 -23t-105 -71l-203 -172l296 -253q52 -45 69.5 -57t37.5 -15l52 -9v-16z" />
    <glyph glyph-name="L" unicode="L" horiz-adv-x="573" vert-adv-y="1301" 
d="M208 45q0 -13 4.5 -19.5t23.5 -6.5h93q87 0 117 9t61.5 42t54.5 90h16l-29 -164q-82 4 -269 4q-205 0 -270 -4v14l91 13q26 3 26 21v523q0 19 -6.5 24.5t-19.5 7.5l-77 13v16q54 -3 206 -3q64 0 90 3v-16l-86 -13q-15 -2 -20.5 -6.5t-5.5 -25.5v-522z" />
    <glyph glyph-name="M" unicode="M" horiz-adv-x="833" vert-adv-y="1301" 
d="M825 -3q-96 3 -143 3q-62 0 -143 -3v16l60 12q23 5 29 15t6 39v467l-224 -554l-266 597v-516q0 -47 30 -50l92 -10v-16q-60 3 -129 3q-51 0 -130 -3v16l55 10q38 7 45.5 16.5t7.5 33.5v528l-91 11v16q17 -3 96 -3q67 0 92 3l222 -496l202 496q49 -3 98 -3q48 0 90 3v-16
l-62 -13q-29 -6 -40 -18t-11 -41v-454q0 -31 5.5 -41.5t23.5 -14.5l85 -17v-16z" />
    <glyph glyph-name="N" unicode="N" horiz-adv-x="771" vert-adv-y="1301" 
d="M148 67q0 -25 6 -33.5t25 -10.5l92 -10v-16q-60 3 -129 3q-51 0 -130 -3v16l55 10q34 6 43.5 14t9.5 30v436q0 46 -10 69t-38 27l-59 9v17h120q21 0 29.5 -5t23.5 -21l452 -493l-10 450q-1 28 -9.5 36t-26.5 10l-86 10v16q28 -3 108 -3t108 3v-16l-42 -4q-17 -2 -21 -12
t-3 -40l10 -569h-24l-494 530v-450z" />
    <glyph glyph-name="O" unicode="O" horiz-adv-x="781" vert-adv-y="1301" 
d="M389 -16q-153 0 -248 91t-95 231q0 136 97 232.5t260 96.5q138 0 234 -92.5t96 -230.5q0 -147 -95 -237.5t-249 -90.5zM136 299q0 -119 71.5 -208t177.5 -89q127 0 193.5 78t66.5 226q0 138 -70.5 224t-185.5 86q-82 0 -140.5 -44t-85.5 -119.5t-27 -153.5z" />
    <glyph glyph-name="P" unicode="P" horiz-adv-x="563" vert-adv-y="1301" 
d="M21 625q97 0 132 2l142 8q16 1 31 1q112 0 161 -57t49 -127q0 -78 -56.5 -132.5t-138.5 -54.5q-63 0 -96 39l6 6q26 -9 54 -9q61 0 102.5 39.5t41.5 107.5q0 66 -46.5 112.5t-146.5 46.5q-35 0 -53 -8v-538q0 -15 6.5 -21.5t28.5 -11.5l73 -16v-16q-84 4 -135 4
q-35 0 -135 -3v16l56 8q15 3 20 11t5 27v477q0 38 -23.5 51t-77.5 19v19z" />
    <glyph glyph-name="Q" unicode="Q" horiz-adv-x="771" vert-adv-y="1301" 
d="M343 -15q-131 20 -213.5 104.5t-82.5 183.5q0 156 100 259t252 103q136 0 228.5 -95t92.5 -227q0 -120 -73 -210.5t-205 -114.5q88 -100 306 -171v-21q-120 0 -217.5 48t-187.5 141zM142 308q0 -133 64.5 -218t171.5 -85q116 0 182.5 72.5t66.5 203.5q0 153 -64 242
t-174 89q-107 0 -177 -88t-70 -216z" />
    <glyph glyph-name="R" unicode="R" horiz-adv-x="625" vert-adv-y="1301" 
d="M21 12l55 6q29 3 38.5 11.5t9.5 40.5v468q0 31 -8 44t-47 20l-44 8l-1 15q44 0 62 1l164 9q20 1 38 1q106 0 157.5 -37t51.5 -115q0 -59 -29.5 -93.5t-90.5 -63.5l110 -195q45 -77 74.5 -93.5t79.5 -23.5v-16q-42 1 -103 1q-51 0 -72 -1l-153 283q-17 31 -50 31h-56v-237
q0 -24 9.5 -35t33.5 -17l49 -12v-16q-72 4 -139 4q-79 0 -139 -4v16zM207 340q202 -7 202 128q0 62 -45.5 100.5t-122.5 38.5q-16 0 -34 -2v-265z" />
    <glyph glyph-name="S" unicode="S" horiz-adv-x="479" vert-adv-y="1301" 
d="M376 477q-29 131 -144 131q-54 0 -90.5 -31t-36.5 -73q0 -33 29.5 -61t122.5 -76q95 -49 137.5 -86t42.5 -110q0 -84 -58.5 -135.5t-163.5 -51.5q-97 0 -177 47l11 149h14q9 -74 60 -121.5t113 -47.5q59 0 99.5 35t40.5 84q0 44 -32.5 74t-107.5 69q-104 54 -145 98
t-41 101q0 71 55 117t143 46t145 -44l-4 -114h-13z" />
    <glyph glyph-name="T" unicode="T" horiz-adv-x="615" vert-adv-y="1301" 
d="M42 646q7 26 15 26q7 0 19 -22q9 -18 17 -21.5t31 -3.5h387q36 0 47 5.5t21 28.5q6 14 15 14q13 0 13 -20l-2 -158q0 -16 -8 -16q-11 0 -18 29q-11 49 -27 68t-69 19h-125v-515q0 -27 6.5 -36t27.5 -14l78 -17v-16q-53 3 -156 3q-132 0 -156 -3v16l70 14q29 6 38 17.5
t9 36.5v514h-123q-33 1 -54 -15t-61 -73q-18 -26 -26 -26q-5 0 -5 11t5 32z" />
    <glyph glyph-name="U" unicode="U" horiz-adv-x="708" vert-adv-y="1301" 
d="M288 628v-16l-63 -8q-18 -2 -25.5 -13.5t-7.5 -36.5v-357q0 -96 40 -138.5t131 -42.5q122 0 164.5 56.5t42.5 203.5v277q0 40 -41 48l-59 11v16q24 -3 102 -3t103 3v-16l-58 -13q-22 -4 -22 -46v-303q0 -140 -52 -203t-177 -63q-122 0 -187.5 51t-65.5 147v375
q0 24 -5 34.5t-19 12.5l-71 8v16q66 -3 135 -3q99 0 135 3z" />
    <glyph glyph-name="V" unicode="V" horiz-adv-x="677" vert-adv-y="1301" 
d="M686 612l-54 -9q-30 -6 -41 -33l-230 -593h-21l-244 576q-11 26 -19.5 35t-23.5 12l-56 12v16q34 -3 145 -3q97 0 146 3v-16l-64 -4q-26 -1 -37 -7.5t-11 -20.5q0 -15 16 -53l182 -438l160 444q10 29 10 41q0 15 -13.5 21.5t-51.5 11.5l-40 5v16q27 -3 123 -3
q102 0 124 3v-16z" />
    <glyph glyph-name="W" unicode="W" horiz-adv-x="885" vert-adv-y="1301" 
d="M495 351l122 -270l161 412q21 54 21 79q0 27 -25 32l-41 8v16q10 -3 78 -3q65 0 81 3v-16l-30 -9q-15 -5 -23 -14t-16 -31l-217 -580h-21l-131 287l-139 -287h-21l-223 553q-19 46 -27.5 58t-23.5 16l-29 7v16q25 -3 98 -3q64 0 100 3v-16l-47 -9q-8 -1 -8 -9
q0 -13 22 -68l181 -456l104 223l-104 239q-20 44 -29 56.5t-22 14.5l-49 9v16q28 -3 156 -3q50 0 72 3v-16l-58 -11q-9 -1 -9 -10q0 -11 22 -64l61 -145l79 176q5 10 5 20q0 12 -7.5 19.5t-15.5 8.5l-34 6v16q25 -3 91 -3q72 0 91 3v-16l-47 -9q-34 -7 -52 -46z" />
    <glyph glyph-name="X" unicode="X" horiz-adv-x="698" vert-adv-y="1301" 
d="M336 266l-125 -162q-21 -28 -21 -47q0 -17 16 -26.5t36 -11.5l61 -7v-16q-55 4 -149 4q-80 0 -149 -4v16l64 10q25 5 46.5 22t48.5 52l152 197l-182 254q-27 36 -37.5 46t-24.5 12l-67 8v16q57 -4 198 -4q71 0 111 4v-16l-61 -10q-35 -5 -35 -27q0 -16 21 -45l126 -174
l137 181q14 18 14 32q0 22 -35 30l-57 13v16q54 -4 124 -4q96 0 123 4v-16l-52 -10q-34 -6 -82 -70l-152 -202l190 -251q41 -55 69 -59l64 -9v-16q-62 4 -153 4q-73 0 -153 -4v16l46 6q28 4 38.5 8.5t10.5 12.5q0 10 -16 32z" />
    <glyph glyph-name="Y" unicode="Y" horiz-adv-x="656" vert-adv-y="1301" 
d="M409 26l75 -11v-18q-115 3 -152 3q-84 0 -150 -3v16l75 12q17 3 28 12.5t11 21.5v167q0 23 -18 50l-178 267q-40 60 -64 63l-44 6v16q20 -3 135 -3q93 0 134 3v-16l-63 -9q-27 -4 -27 -19q0 -5 4 -11l180 -276l172 248q15 22 15 35q0 18 -25 22l-64 10v16q9 -3 106 -3
q82 0 105 4v-16l-34 -8q-30 -4 -85 -81l-161 -226q-8 -11 -11 -26t-3 -47v-164q0 -29 39 -35z" />
    <glyph glyph-name="Z" unicode="Z" horiz-adv-x="656" vert-adv-y="1301" 
d="M609 176l-4 -179q-141 3 -228 3q-213 0 -339 -4v10l444 595l-275 -5q-40 -2 -60.5 -9t-40 -28.5t-53.5 -72.5h-10l59 183h17q-4 -15 -4 -23q0 -18 21 -22.5t89 -3.5l357 5v-20l-437 -580h191q109 0 155.5 9t70.5 47.5t31 94.5h16z" />
    <glyph glyph-name="bracketleft" unicode="[" horiz-adv-x="271" vert-adv-y="1301" 
d="M105 625h189v-21h-66q-37 0 -49 -6.5t-12 -39.5v-650q0 -40 4 -57.5t15.5 -23t37.5 -5.5h70v-22h-189v825z" />
    <glyph glyph-name="backslash" unicode="\" horiz-adv-x="500" vert-adv-y="1301" 
d="M55 625h43l347 -825h-43z" />
    <glyph glyph-name="bracketright" unicode="]" horiz-adv-x="271" vert-adv-y="1301" 
d="M170 -200h-189v22h70q26 0 37.5 5.5t15.5 23t4 57.5v647q0 30 -9.5 38.5t-52.5 8.5h-67v23h191v-825z" />
    <glyph glyph-name="asciicircum" unicode="^" horiz-adv-x="500" vert-adv-y="1301" 
d="M250 671l219 -263l-31 -26l-188 225l-187 -225l-31 26z" />
    <glyph glyph-name="underscore" unicode="_" horiz-adv-x="500" vert-adv-y="1301" 
d="M-6 -75h512v-50h-512v50z" />
    <glyph glyph-name="grave" unicode="`" horiz-adv-x="333" vert-adv-y="1301" 
d="M270 483l-5 -5l-88 59q-71 49 -71 70q0 9 8.5 16.5t19.5 7.5q30 0 75 -63z" />
    <glyph glyph-name="a" unicode="a" horiz-adv-x="406" vert-adv-y="1301" 
d="M399 63l13 -7q-29 -72 -80 -72q-31 0 -48.5 17.5t-17.5 50.5q-55 -42 -81.5 -55t-66.5 -13q-65 0 -65 53q0 47 57.5 100t157.5 90v68q0 32 -18 52.5t-48 20.5q-35 0 -60 -23.5t-30 -65.5q-2 -17 -16.5 -29t-30.5 -12q-7 0 -14.5 3.5t-7.5 11.5q0 14 26 57t65 66t76 23
q62 0 90 -24.5t28 -78.5v-203q0 -23 1.5 -35.5t10.5 -19t18 -6.5q22 0 41 31zM268 102v103q-64 -25 -105 -66t-41 -75q0 -19 12.5 -31.5t31.5 -12.5q27 0 64.5 27.5t37.5 54.5z" />
    <glyph glyph-name="b" unicode="b" horiz-adv-x="510" vert-adv-y="1301" 
d="M16 614l3 15l128 31v-296q81 35 143 35q81 0 132 -57t51 -144q0 -98 -60 -156t-146 -58q-44 0 -85 18q-38 17 -45 17q-16 0 -38 -40h-15v553q0 39 -11 52t-57 30zM147 108q0 -44 27.5 -69.5t74.5 -25.5q151 0 151 166q0 81 -43 134t-109 53q-43 0 -72 -12t-29 -28v-218z
" />
    <glyph glyph-name="c" unicode="c" horiz-adv-x="417" vert-adv-y="1301" 
d="M390 89l1 -31q-37 -39 -74 -56.5t-89 -17.5q-78 0 -130.5 61t-52.5 152q0 99 55 150.5t161 51.5q55 0 89.5 -16t34.5 -43q0 -14 -9.5 -25t-25.5 -11q-26 0 -56 30q-33 33 -69 33q-43 0 -75.5 -46.5t-32.5 -116.5q0 -80 42 -127t99 -47q65 0 132 59z" />
    <glyph glyph-name="d" unicode="d" horiz-adv-x="500" vert-adv-y="1301" 
d="M357 545q0 38 -12.5 50.5t-65.5 25.5v16q64 5 116 23h25v-592q0 -34 10.5 -41.5t57.5 -8.5v-16q-75 -17 -131 -23v46q-52 -21 -87 -31t-76 -10q-65 0 -113 57t-48 133q0 93 58.5 159t136.5 66t129 -27v173zM357 50v227q0 46 -32 72.5t-87 26.5q-58 0 -96 -52t-38 -136
q0 -74 42 -120.5t105 -46.5q31 0 61 8.5t45 20.5z" />
    <glyph glyph-name="e" unicode="e" horiz-adv-x="417" vert-adv-y="1301" 
d="M387 251h-279q-3 -20 -3 -40q0 -78 42.5 -127t115.5 -49q35 0 64 14t63 46l4 -24q-70 -87 -181 -87q-73 0 -122 59t-49 143q0 92 54.5 152.5t138.5 60.5q64 0 106.5 -40.5t45.5 -107.5zM113 272h182q27 0 27 21t-20 52t-71 31q-44 0 -76 -28.5t-42 -75.5z" />
    <glyph glyph-name="f" unicode="f" horiz-adv-x="323" vert-adv-y="1301" 
d="M180 383l130 -3v-35l-128 -4v-251q0 -61 42 -67l67 -10v-16q-63 3 -130 3q-75 0 -113 -3v15l31 7q28 6 34.5 16t6.5 47v247q-20 4 -73 6v15q47 20 59 31t12 31q0 9 7 63.5t38 98t67.5 65t89.5 21.5q83 0 83 -42q0 -15 -10.5 -24t-27.5 -9q-16 0 -34 8q-48 21 -72 21
q-20 0 -39 -13t-27 -25.5t-11 -40t-3 -91.5q0 -45 1 -61z" />
    <glyph glyph-name="g" unicode="g" horiz-adv-x="448" vert-adv-y="1301" 
d="M164 -38q-44 17 -69 40t-25 43q0 16 10.5 25t38.5 17q25 8 53 20q-48 27 -70.5 59.5t-22.5 77.5q0 65 46.5 110t117.5 45q32 0 55 -7.5t52 -25.5q25 -16 40 -16q12 0 41 4q26 3 36 3q17 0 21.5 -7t4.5 -29q0 -15 -17 -15q-12 0 -44 8q-40 10 -48 7q21 -42 21 -75
q0 -50 -42.5 -99t-134.5 -49q-39 0 -70 -15t-31 -29q0 -17 55 -34t139 -20q72 -2 112 -31.5t40 -74.5q0 -38 -27.5 -74.5t-86.5 -58t-127 -21.5q-83 0 -138.5 32.5t-55.5 72.5q0 63 126 117zM239 382q-95 0 -95 -136q0 -61 27 -96t69 -35q45 0 72 34t27 96q0 63 -28 100
t-72 37zM97 -145q0 -39 39 -67t104 -28q83 0 136 31t53 77q0 48 -50 65.5t-147 17.5q-69 0 -102 -31t-33 -65z" />
    <glyph glyph-name="h" unicode="h" horiz-adv-x="510" vert-adv-y="1301" 
d="M90 553q0 27 -12.5 37.5t-61.5 21.5v12q42 2 110 36h24v-353q73 92 160 92q53 0 85.5 -36t32.5 -100v-216q0 -10 4 -15.5t21 -9.5l44 -10v-16q-62 4 -96 4q-35 0 -97 -4v16l41 11q13 4 18.5 9t5.5 22v207q0 42 -25 67t-69 25q-34 0 -63 -19.5t-62 -61.5v-218
q0 -12 3.5 -17t15.5 -8l68 -17v-16q-32 4 -111 4t-111 -4v16l54 11q13 3 17 6.5t4 15.5v508z" />
    <glyph glyph-name="i" unicode="i" horiz-adv-x="229" vert-adv-y="1301" 
d="M112 640q17 0 31 -13t14 -30q0 -16 -14.5 -28.5t-32.5 -12.5q-17 0 -29 12t-12 29t13 30t30 13zM222 -4q-31 4 -110 4t-110 -4v16l56 11q31 6 31 36v235q0 24 -12 35t-48 19v14q71 18 104 72h16v-378q0 -15 4.5 -22t17.5 -10l51 -12v-16z" />
    <glyph glyph-name="j" unicode="j" horiz-adv-x="229" vert-adv-y="1301" 
d="M105 640q20 0 31.5 -12.5t11.5 -32.5t-12.5 -31.5t-32.5 -11.5q-17 0 -28.5 12.5t-11.5 30.5q0 20 11.5 32.5t30.5 12.5zM21 -235q38 32 55 77.5t17 117.5v338q0 26 -11 34.5t-51 12.5v19q74 21 106 70h15v-468q0 -60 -32 -117.5t-91 -94.5z" />
    <glyph glyph-name="k" unicode="k" horiz-adv-x="469" vert-adv-y="1301" 
d="M478 -4q-38 4 -109 4t-109 -4v16l46 4q22 2 22 11q0 6 -7.5 16.5t-28 35.5t-46 58.5t-36 44.5t-19 15.5t-22.5 4.5h-18v-142q0 -25 5 -31.5t20 -9.5l38 -7v-16q-31 4 -94 4t-94 -4v16l37 6q18 2 23 9.5t5 32.5v497q0 23 -10.5 30.5t-51.5 13.5v14q51 10 106 45h16v-441
q20 0 40 12t53.5 39t47 41.5t13.5 23.5q0 20 -64 30v16h203v-16q-70 -7 -124 -53l-87 -75l134 -161q28 -33 41 -43.5t26 -12.5l44 -8v-16z" />
    <glyph glyph-name="l" unicode="l" horiz-adv-x="229" vert-adv-y="1301" 
d="M227 -3q-49 3 -111 3t-111 -3v16l62 12q13 3 18 8t5 20v508q0 21 -12 31t-53 22v13q38 8 103 33h23v-605q0 -19 4 -24.5t19 -8.5l53 -9v-16z" />
    <glyph glyph-name="m" unicode="m" horiz-adv-x="771" vert-adv-y="1301" 
d="M559 13l29 6q24 5 34 12.5t10 29.5v179q0 59 -23.5 86t-73.5 27q-66 0 -115 -58v-226q0 -21 4 -31.5t22 -14.5l51 -11v-16q-50 4 -106 4q-59 0 -114 -4v16l29 7q28 7 40.5 15.5t12.5 29.5v178q0 50 -24 80t-62 30q-45 0 -86.5 -26.5t-41.5 -53.5v-204q0 -24 6.5 -33
t20.5 -12l51 -11v-16q-50 4 -100 4q-52 0 -105 -4v16l29 6q22 5 29.5 14t7.5 30v216q0 25 -9.5 34.5t-44.5 14.5v16q51 13 96 74h19v-96q44 40 78.5 59t71.5 19q47 0 72 -14t50 -59q34 35 69.5 54t81.5 19q59 0 92 -35.5t33 -101.5v-202q0 -37 16 -40l45 -8v-16q-50 4 -95 4
q-60 0 -100 -3v16z" />
    <glyph glyph-name="n" unicode="n" horiz-adv-x="510" vert-adv-y="1301" 
d="M500 -3q-52 3 -104 3t-104 -3v16l55 8q22 3 22 39v197q0 44 -25 70t-68 26q-64 0 -125 -61v-243q0 -16 24 -22l59 -14v-16q-37 3 -108 3t-108 -3v16l53 10q20 3 20 30v198q0 31 -12.5 42t-44.5 16v18q64 15 101 90h16v-90q38 33 84 52.5t81 19.5q115 0 115 -137v-199
q0 -19 5 -29t20 -13l44 -8v-16z" />
    <glyph glyph-name="o" unicode="o" horiz-adv-x="510" vert-adv-y="1301" 
d="M248 -16q-87 0 -148 58t-61 151q0 89 61 147.5t160 58.5q92 0 151 -61.5t59 -152.5q0 -83 -62.5 -142t-159.5 -59zM111 183q0 -83 39 -131.5t101 -48.5q64 0 105.5 51t41.5 135q0 86 -39 138.5t-103 52.5q-69 0 -107 -50t-38 -147z" />
    <glyph glyph-name="p" unicode="p" horiz-adv-x="510" vert-adv-y="1301" 
d="M139 337q87 62 168 62q75 0 121 -53.5t46 -143.5q0 -91 -61 -154.5t-156 -63.5q-57 0 -118 29v-212q0 -13 8.5 -20.5t33.5 -11.5l60 -10v-16q-39 4 -115 4q-63 0 -114 -4v16l42 8q15 3 19.5 9.5t4.5 25.5v501q0 36 -13 38l-49 8l3 14q50 21 70.5 35t34.5 37h15v-98z
M139 307v-219q0 -36 33 -59.5t85 -23.5q64 0 106 47.5t42 115.5q0 87 -37 136t-99 49q-61 0 -130 -46z" />
    <glyph glyph-name="q" unicode="q" horiz-adv-x="490" vert-adv-y="1301" 
d="M489 -257q-51 4 -108 4q-25 0 -108 -3v16l47 9q22 5 32 14t10 31v213q-69 -43 -139 -43q-79 0 -136 65.5t-57 145.5q0 86 59 145.5t143 59.5q46 0 91 -20q30 -13 45 -13t23 13t13 42h19v-598q0 -28 4.5 -40.5t19.5 -15.5l42 -9v-16zM362 131v100q0 76 -38.5 112t-87.5 36
q-56 0 -95 -46.5t-39 -119.5q0 -70 47.5 -129t110.5 -59q62 0 82 18t20 88z" />
    <glyph glyph-name="r" unicode="r" horiz-adv-x="333" vert-adv-y="1301" 
d="M21 -4v16l50 9q20 5 25.5 15t5.5 36v192q0 20 -8.5 29t-37.5 15l-27 6l2 15q39 14 65 32.5t46 60.5h18q4 -54 4 -126q19 36 55 69.5t64 33.5q22 0 35.5 -14t13.5 -36q0 -17 -11 -27t-28 -10q-15 0 -32 7q-20 9 -33 9q-22 0 -43 -36t-21 -56v-166q0 -26 8.5 -34.5
t36.5 -12.5l77 -11v-16q-54 4 -133 4q-75 0 -132 -4z" />
    <glyph glyph-name="s" unicode="s" horiz-adv-x="365" vert-adv-y="1301" 
d="M280 288q-9 34 -40 61t-55 27q-73 0 -73 -67q0 -27 24 -45.5t73 -36.5q113 -43 113 -122q0 -52 -40 -86.5t-99 -34.5q-72 0 -118 26l-10 113h17q14 -53 49 -85.5t75 -32.5q32 0 54 20.5t22 51.5q0 57 -94 92q-66 25 -94.5 52.5t-28.5 67.5q0 51 38 80.5t102 29.5
q57 0 98 -24l6 -87h-19z" />
    <glyph glyph-name="t" unicode="t" horiz-adv-x="292" vert-adv-y="1301" 
d="M153 482h12l1 -107l136 3v-36l-136 -4v-238q0 -45 12.5 -65t40.5 -20q34 0 82 28l9 -14q-21 -24 -48.5 -34.5t-74.5 -10.5q-52 0 -68 25.5t-16 100.5v226l-54 -1q-14 0 -14 8q0 7 13 13q43 18 62.5 41.5t42.5 84.5z" />
    <glyph glyph-name="u" unicode="u" horiz-adv-x="490" vert-adv-y="1301" 
d="M16 381h128v-258q0 -48 16.5 -68t62.5 -20q68 0 125 51v241q0 19 -15 25.5t-77 12.5v16h157v-294q0 -34 10.5 -41.5t59.5 -9.5l1 -15l-136 -36v76q-44 -38 -80 -57.5t-72 -19.5q-50 0 -82.5 37t-32.5 98v209q0 18 -10.5 24.5t-54.5 14.5v14z" />
    <glyph glyph-name="v" unicode="v" horiz-adv-x="469" vert-adv-y="1301" 
d="M381 316l-140 -339h-14l-151 341q-12 24 -19 31t-22 10l-41 9v16q23 -3 114 -3q86 0 113 3v-16l-62 -10q-19 -3 -19 -15q0 -13 18 -55l97 -223l91 226q10 24 10 38q0 27 -41 33l-39 6v16q13 -3 101 -3q78 0 101 3v-16l-56 -8q-16 -2 -23 -9.5t-18 -34.5z" />
    <glyph glyph-name="w" unicode="w" horiz-adv-x="667" vert-adv-y="1301" 
d="M-10 384q22 -3 99 -3q66 0 96 3v-16l-40 -6q-19 -4 -19 -19q0 -9 5 -20l130 -272l80 162l-39 103q-11 28 -18.5 35.5t-15.5 8.5l-42 8v16q28 -3 107 -3q85 0 110 3v-16l-49 -9q-30 -7 -30 -23q0 -7 5 -20l98 -257l102 239q6 13 6 25q0 16 -11 26t-24 12l-41 7v16
q22 -3 87 -3q60 0 88 3v-16l-25 -5q-30 -9 -51 -56l-144 -330h-16l-85 206l-105 -206h-20l-177 358q-13 27 -38 30l-23 3v16z" />
    <glyph glyph-name="x" unicode="x" horiz-adv-x="458" vert-adv-y="1301" 
d="M445 -4q-38 4 -95 4q-60 0 -96 -4v16l34 9q25 7 25 19q0 9 -15 28l-80 101l-74 -101q-11 -14 -11 -24q0 -18 39 -26l30 -6v-16q-40 4 -73 4q-63 0 -112 -4v16l28 7q27 5 45.5 21t40.5 46l73 99l-99 120q-44 53 -59 56l-32 7v16q21 -3 98 -3q74 0 99 3v-18l-36 -5
q-16 -3 -16 -13q0 -14 23 -43l58 -71l56 73q13 18 13 31q0 20 -28 25l-30 5v16q29 -4 70 -3.5t55 0.5q41 0 54 3v-16l-33 -6q-23 -5 -41 -17.5t-40 -42.5l-63 -85l120 -155q28 -34 44 -40l28 -10v-16z" />
    <glyph glyph-name="y" unicode="y" horiz-adv-x="417" vert-adv-y="1301" 
d="M3 386q63 -5 100 -5q59 0 101 5v-16l-61 -12q-15 -3 -15 -14q0 -4 3 -13l101 -285l93 258q5 13 5 24q0 24 -18 28l-56 14v16q45 -5 85 -5q35 0 85 5v-16l-32 -9q-14 -4 -24 -16.5t-24 -50.5l-169 -446q-17 -47 -42 -71t-53 -24q-43 0 -43 32q0 36 37 36q13 0 31 -4
q8 -2 13 -2q8 0 13.5 5t22.5 34.5t29.5 64.5t12.5 46q0 17 -10 43l-122 323q-8 23 -26 28l-37 11v16z" />
    <glyph glyph-name="z" unicode="z" horiz-adv-x="427" vert-adv-y="1301" 
d="M390 122l-22 -125q-90 3 -171 3q-119 0 -172 -3v14l286 346l-138 -4q-42 -1 -66.5 -16t-53.5 -61h-12l50 154h19q-5 -17 -5 -28q0 -14 10 -20t49 -5l224 4v-21l-269 -336h75q70 0 98 5t45 24t36 69h17z" />
    <glyph glyph-name="braceleft" unicode="{" horiz-adv-x="479" vert-adv-y="1301" 
d="M138 215q52 7 82 36t30 65q0 28 -12 73q-12 47 -12 81q0 71 56 126.5t129 63.5v-17q-56 -13 -82.5 -42t-26.5 -78q0 -30 9 -70q11 -50 11 -81q0 -52 -37.5 -97.5t-106.5 -70.5q69 -25 106.5 -70.5t37.5 -97.5q0 -31 -11 -81q-9 -40 -9 -70q0 -50 26.5 -79t82.5 -42v-17
q-73 8 -128.5 64t-55.5 128q0 34 11 80q12 45 12 73q0 36 -30 65t-82 36v22z" />
    <glyph glyph-name="bar" unicode="|" horiz-adv-x="500" vert-adv-y="1301" 
d="M229 625h43v-825h-43v825z" />
    <glyph glyph-name="braceright" unicode="}" horiz-adv-x="479" vert-adv-y="1301" 
d="M359 193q-52 -7 -82 -36t-30 -65q0 -28 12 -73q11 -46 11 -80q0 -72 -55.5 -128t-128.5 -64v17q56 13 82.5 42t26.5 79q0 30 -9 70q-11 50 -11 81q0 52 37.5 97.5t106.5 70.5q-69 25 -106.5 70.5t-37.5 97.5q0 31 11 81q9 40 9 70q0 49 -26.5 78t-82.5 42v17
q73 -8 129 -63.5t56 -126.5q0 -34 -12 -81q-12 -45 -12 -73q0 -36 30 -65t82 -36v-22z" />
    <glyph glyph-name="asciitilde" unicode="~" horiz-adv-x="667" vert-adv-y="1301" 
d="M572 377h21q-4 -63 -36.5 -98t-83.5 -35q-24 0 -49.5 8t-85.5 33q-73 30 -104 39t-54 9q-33 0 -52.5 -20.5t-33.5 -67.5h-21q4 64 35.5 98.5t80.5 34.5q20 0 56.5 -11t126.5 -49q70 -30 113 -30q72 0 87 89z" />
    <glyph glyph-name="glyph98" vert-adv-y="1301" 
 />
    <glyph glyph-name="Adieresis" unicode="&#xc4;" horiz-adv-x="677" vert-adv-y="1301" 
d="M260 687q-16 0 -29 12t-13 29q0 18 12 30.5t29 12.5q18 0 30.5 -13t12.5 -29q0 -17 -12.5 -29.5t-29.5 -12.5zM428 687q-16 0 -29 12t-13 29q0 18 12 30.5t29 12.5q18 0 30.5 -13t12.5 -29q0 -17 -12.5 -29.5t-29.5 -12.5zM224 284l-80 -232q-3 -10 -3 -16q0 -8 6 -12
t25 -5l70 -5v-16q-19 2 -123 2t-123 -2v16l63 5q33 3 46 37l224 604h29l221 -597q7 -17 13 -23t22 -11l55 -17v-15q-51 3 -131 3t-131 -3v15l66 10q19 3 26.5 7t7.5 12q0 6 -5 20l-81 223h-197zM413 306l-93 258l-88 -258h181z" />
    <glyph glyph-name="Aring" unicode="&#xc5;" horiz-adv-x="677" vert-adv-y="1301" 
d="M325 649q-29 7 -46.5 29t-17.5 49q0 33 24 57t57 24t57 -24t24 -57q0 -27 -16.5 -48.5t-44.5 -28.5l217 -587q7 -17 13 -23t22 -11l55 -17v-15q-51 3 -131 3t-131 -3v15l66 10q19 3 26.5 7t7.5 12q0 6 -5 20l-81 223h-197l-80 -232q-3 -10 -3 -16q0 -8 6 -12t25 -5l70 -5
v-16q-19 2 -123 2t-123 -2v16l63 5q33 3 46 37zM413 306l-93 258l-88 -258h181z" />
    <glyph glyph-name="Ccedilla" unicode="&#xc7;" horiz-adv-x="635" vert-adv-y="1301" 
d="M427 -15q-12 -1 -43 -1q-157 0 -249 86.5t-92 228.5q0 87 43.5 166t118 124.5t160.5 45.5q88 0 131 -8t83 -33q6 -48 5 -99h-19q-20 58 -67.5 88.5t-114.5 30.5q-105 0 -174 -86.5t-69 -223.5q0 -148 61.5 -223t182.5 -75q139 0 204 132h13q-11 -61 -31 -129
q-55 -21 -125 -24l-24 -39q38 -30 38 -69q0 -38 -25 -62.5t-61 -24.5q-26 0 -43 13.5t-17 29.5q0 8 6 14.5t12 6.5q10 0 27 -21q15 -21 33 -21q13 0 22.5 14t9.5 31q0 39 -45 58q28 35 49 70z" />
    <glyph glyph-name="Eacute" unicode="&#xc9;" horiz-adv-x="656" vert-adv-y="1301" 
d="M281 686l60 87q43 63 77 63q12 0 20.5 -7.5t8.5 -15.5q0 -20 -69 -68l-93 -64zM633 162q-22 -92 -25 -165q-124 3 -292 3t-292 -3v17l72 5q17 1 23.5 7t6.5 28v503q0 24 -5.5 34.5t-19.5 11.5l-73 7v18q81 -3 269 -3q190 0 269 3q-3 -31 -3 -74q0 -33 2 -65h-13
q-22 55 -34 78.5t-22 30.5t-27 7h-232q-17 0 -23 -9.5t-6 -32.5v-230h225q17 0 25 5.5t12 24.5l13 70h20q-3 -59 -3 -120q0 -60 3 -120h-12l-22 78q-7 22 -20 30.5t-39 8.5h-202v-249q0 -22 8 -30.5t34 -8.5h222q30 0 50.5 9.5t42 39.5t48.5 91h20z" />
    <glyph glyph-name="Ntilde" unicode="&#xd1;" horiz-adv-x="771" vert-adv-y="1301" 
d="M527 785h15q1 -47 -21.5 -73.5t-59.5 -26.5q-34 0 -75 30q-40 29 -65 29q-37 0 -44 -58h-15q5 99 81 99q18 0 32 -5.5t45 -25.5q42 -28 65 -28q34 0 42 59zM148 67q0 -25 6 -33.5t25 -10.5l92 -10v-16q-60 3 -129 3q-51 0 -130 -3v16l55 10q34 6 43.5 14t9.5 30v436
q0 46 -10 69t-38 27l-59 9v17h120q21 0 29.5 -5t23.5 -21l452 -493l-10 450q-1 28 -9.5 36t-26.5 10l-86 10v16q28 -3 108 -3t108 3v-16l-42 -4q-17 -2 -21 -12t-3 -40l10 -569h-24l-494 530v-450z" />
    <glyph glyph-name="Odieresis" unicode="&#xd6;" horiz-adv-x="781" vert-adv-y="1301" 
d="M499 687q-16 0 -29 12t-13 29q0 18 12 30.5t30 12.5t30 -12t12 -30t-12 -30t-30 -12zM331 687q-16 0 -29 12t-13 29q0 18 12 30.5t29 12.5q18 0 30.5 -13t12.5 -29q0 -17 -12.5 -29.5t-29.5 -12.5zM389 -16q-153 0 -248 91t-95 231q0 136 97 232.5t260 96.5
q138 0 234 -92.5t96 -230.5q0 -147 -95 -237.5t-249 -90.5zM136 299q0 -119 71.5 -208t177.5 -89q127 0 193.5 78t66.5 226q0 138 -70.5 224t-185.5 86q-82 0 -140.5 -44t-85.5 -119.5t-27 -153.5z" />
    <glyph glyph-name="Udieresis" unicode="&#xdc;" horiz-adv-x="708" vert-adv-y="1301" 
d="M462 687q-16 0 -29 12t-13 29q0 18 12 30.5t30 12.5t30 -12t12 -30t-12 -30t-30 -12zM294 687q-16 0 -29 12t-13 29q0 18 12 30.5t29 12.5q18 0 30.5 -13t12.5 -29q0 -17 -12.5 -29.5t-29.5 -12.5zM288 628v-16l-63 -8q-18 -2 -25.5 -13.5t-7.5 -36.5v-357
q0 -96 40 -138.5t131 -42.5q122 0 164.5 56.5t42.5 203.5v277q0 40 -41 48l-59 11v16q24 -3 102 -3t103 3v-16l-58 -13q-22 -4 -22 -46v-303q0 -140 -52 -203t-177 -63q-122 0 -187.5 51t-65.5 147v375q0 24 -5 34.5t-19 12.5l-71 8v16q66 -3 135 -3q99 0 135 3z" />
    <glyph glyph-name="glyph106" horiz-adv-x="406" vert-adv-y="1301" 
d="M148 480l70 100q37 52 67 52q11 0 19.5 -7.5t8.5 -17.5q0 -21 -39 -48l-115 -79h-11zM399 63l13 -7q-29 -72 -80 -72q-31 0 -48.5 17.5t-17.5 50.5q-55 -42 -81.5 -55t-66.5 -13q-65 0 -65 53q0 47 57.5 100t157.5 90v68q0 32 -18 52.5t-48 20.5q-35 0 -60 -23.5
t-30 -65.5q-2 -17 -16.5 -29t-30.5 -12q-7 0 -14.5 3.5t-7.5 11.5q0 14 26 57t65 66t76 23q62 0 90 -24.5t28 -78.5v-203q0 -23 1.5 -35.5t10.5 -19t18 -6.5q22 0 41 31zM268 102v103q-64 -25 -105 -66t-41 -75q0 -19 12.5 -31.5t31.5 -12.5q27 0 64.5 27.5t37.5 54.5z" />
    <glyph glyph-name="glyph107" horiz-adv-x="406" vert-adv-y="1301" 
d="M281 483l-5 -5l-88 59q-71 49 -71 70q0 9 8.5 16.5t19.5 7.5q30 0 75 -63zM399 63l13 -7q-29 -72 -80 -72q-31 0 -48.5 17.5t-17.5 50.5q-55 -42 -81.5 -55t-66.5 -13q-65 0 -65 53q0 47 57.5 100t157.5 90v68q0 32 -18 52.5t-48 20.5q-35 0 -60 -23.5t-30 -65.5
q-2 -17 -16.5 -29t-30.5 -12q-7 0 -14.5 3.5t-7.5 11.5q0 14 26 57t65 66t76 23q62 0 90 -24.5t28 -78.5v-203q0 -23 1.5 -35.5t10.5 -19t18 -6.5q22 0 41 31zM268 102v103q-64 -25 -105 -66t-41 -75q0 -19 12.5 -31.5t31.5 -12.5q27 0 64.5 27.5t37.5 54.5z" />
    <glyph glyph-name="acircumflex" unicode="&#xe2;" horiz-adv-x="406" vert-adv-y="1301" 
d="M332 477l-111 109l-103 -110v16l93 158h28l93 -158v-15zM399 63l13 -7q-29 -72 -80 -72q-31 0 -48.5 17.5t-17.5 50.5q-55 -42 -81.5 -55t-66.5 -13q-65 0 -65 53q0 47 57.5 100t157.5 90v68q0 32 -18 52.5t-48 20.5q-35 0 -60 -23.5t-30 -65.5q-2 -17 -16.5 -29
t-30.5 -12q-7 0 -14.5 3.5t-7.5 11.5q0 14 26 57t65 66t76 23q62 0 90 -24.5t28 -78.5v-203q0 -23 1.5 -35.5t10.5 -19t18 -6.5q22 0 41 31zM268 102v103q-64 -25 -105 -66t-41 -75q0 -19 12.5 -31.5t31.5 -12.5q27 0 64.5 27.5t37.5 54.5z" />
    <glyph glyph-name="adieresis" unicode="&#xe4;" horiz-adv-x="406" vert-adv-y="1301" 
d="M304 516q-16 0 -29 12t-13 29q0 18 12 30.5t30 12.5t30 -12t12 -30t-12 -30t-30 -12zM136 516q-16 0 -29 12t-13 29q0 18 12 30.5t29 12.5q18 0 30.5 -13t12.5 -29q0 -17 -12.5 -29.5t-29.5 -12.5zM399 63l13 -7q-29 -72 -80 -72q-31 0 -48.5 17.5t-17.5 50.5
q-55 -42 -81.5 -55t-66.5 -13q-65 0 -65 53q0 47 57.5 100t157.5 90v68q0 32 -18 52.5t-48 20.5q-35 0 -60 -23.5t-30 -65.5q-2 -17 -16.5 -29t-30.5 -12q-7 0 -14.5 3.5t-7.5 11.5q0 14 26 57t65 66t76 23q62 0 90 -24.5t28 -78.5v-203q0 -23 1.5 -35.5t10.5 -19t18 -6.5
q22 0 41 31zM268 102v103q-64 -25 -105 -66t-41 -75q0 -19 12.5 -31.5t31.5 -12.5q27 0 64.5 27.5t37.5 54.5z" />
    <glyph glyph-name="atilde" unicode="&#xe3;" horiz-adv-x="406" vert-adv-y="1301" 
d="M337 604h15q1 -47 -21.5 -73.5t-59.5 -26.5q-34 0 -75 30q-40 29 -65 29q-37 0 -44 -58h-15q5 99 81 99q18 0 32 -5.5t45 -25.5q42 -28 65 -28q34 0 42 59zM399 63l13 -7q-29 -72 -80 -72q-31 0 -48.5 17.5t-17.5 50.5q-55 -42 -81.5 -55t-66.5 -13q-65 0 -65 53
q0 47 57.5 100t157.5 90v68q0 32 -18 52.5t-48 20.5q-35 0 -60 -23.5t-30 -65.5q-2 -17 -16.5 -29t-30.5 -12q-7 0 -14.5 3.5t-7.5 11.5q0 14 26 57t65 66t76 23q62 0 90 -24.5t28 -78.5v-203q0 -23 1.5 -35.5t10.5 -19t18 -6.5q22 0 41 31zM268 102v103q-64 -25 -105 -66
t-41 -75q0 -19 12.5 -31.5t31.5 -12.5q27 0 64.5 27.5t37.5 54.5z" />
    <glyph glyph-name="aring" unicode="&#xe5;" horiz-adv-x="406" vert-adv-y="1301" 
d="M219 454q-33 0 -56.5 23.5t-23.5 56.5t24 57t56 24q33 0 56.5 -23.5t23.5 -56.5q0 -34 -23.5 -57.5t-56.5 -23.5zM161 535q0 -24 17 -41.5t41 -17.5t41 17t17 42q0 24 -17 41t-41 17t-41 -17t-17 -41zM399 63l13 -7q-29 -72 -80 -72q-31 0 -48.5 17.5t-17.5 50.5
q-55 -42 -81.5 -55t-66.5 -13q-65 0 -65 53q0 47 57.5 100t157.5 90v68q0 32 -18 52.5t-48 20.5q-35 0 -60 -23.5t-30 -65.5q-2 -17 -16.5 -29t-30.5 -12q-7 0 -14.5 3.5t-7.5 11.5q0 14 26 57t65 66t76 23q62 0 90 -24.5t28 -78.5v-203q0 -23 1.5 -35.5t10.5 -19t18 -6.5
q22 0 41 31zM268 102v103q-64 -25 -105 -66t-41 -75q0 -19 12.5 -31.5t31.5 -12.5q27 0 64.5 27.5t37.5 54.5z" />
    <glyph glyph-name="ccedilla" unicode="&#xe7;" horiz-adv-x="417" vert-adv-y="1301" 
d="M255 -15q-7 -1 -27 -1q-78 0 -130.5 61t-52.5 152q0 99 55 150.5t161 51.5q55 0 89.5 -16t34.5 -43q0 -14 -9.5 -25t-25.5 -11q-26 0 -56 30q-33 33 -69 33q-43 0 -75.5 -46.5t-32.5 -116.5q0 -80 42 -127t99 -47q65 0 132 59l1 -31q-58 -61 -117 -70l-26 -42
q38 -30 38 -69q0 -38 -25 -62.5t-61 -24.5q-26 0 -43 13.5t-17 29.5q0 8 6 14.5t12 6.5q10 0 27 -21q15 -21 33 -21q13 0 22.5 14t9.5 31q0 39 -45 58q25 30 50 70z" />
    <glyph glyph-name="glyph113" horiz-adv-x="417" vert-adv-y="1301" 
d="M161 481l61 87q44 63 77 63q10 0 19 -7.5t9 -15.5q0 -23 -73 -72l-89 -60zM387 251h-279q-3 -20 -3 -40q0 -78 42.5 -127t115.5 -49q35 0 64 14t63 46l4 -24q-70 -87 -181 -87q-73 0 -122 59t-49 143q0 92 54.5 152.5t138.5 60.5q64 0 106.5 -40.5t45.5 -107.5zM113 272
h182q27 0 27 21t-20 52t-71 31q-44 0 -76 -28.5t-42 -75.5z" />
    <glyph glyph-name="glyph114" horiz-adv-x="417" vert-adv-y="1301" 
d="M303 483l-5 -5l-88 59q-71 49 -71 70q0 9 8.5 16.5t19.5 7.5q30 0 75 -63zM387 251h-279q-3 -20 -3 -40q0 -78 42.5 -127t115.5 -49q35 0 64 14t63 46l4 -24q-70 -87 -181 -87q-73 0 -122 59t-49 143q0 92 54.5 152.5t138.5 60.5q64 0 106.5 -40.5t45.5 -107.5zM113 272
h182q27 0 27 21t-20 52t-71 31q-44 0 -76 -28.5t-42 -75.5z" />
    <glyph glyph-name="glyph115" horiz-adv-x="417" vert-adv-y="1301" 
d="M327 477l-111 109l-103 -110v16l92 158h29l93 -158v-15zM387 251h-279q-3 -20 -3 -40q0 -78 42.5 -127t115.5 -49q35 0 64 14t63 46l4 -24q-70 -87 -181 -87q-73 0 -122 59t-49 143q0 92 54.5 152.5t138.5 60.5q64 0 106.5 -40.5t45.5 -107.5zM113 272h182q27 0 27 21
t-20 52t-71 31q-44 0 -76 -28.5t-42 -75.5z" />
    <glyph glyph-name="edieresis" unicode="&#xeb;" horiz-adv-x="417" vert-adv-y="1301" 
d="M316 516q-16 0 -29 12t-13 29q0 18 12 30.5t30 12.5t30 -12t12 -30t-12 -30t-30 -12zM148 516q-16 0 -29 12t-13 29q0 18 12 30.5t29 12.5q18 0 30.5 -13t12.5 -29q0 -17 -12.5 -29.5t-29.5 -12.5zM387 251h-279q-3 -20 -3 -40q0 -78 42.5 -127t115.5 -49q35 0 64 14
t63 46l4 -24q-70 -87 -181 -87q-73 0 -122 59t-49 143q0 92 54.5 152.5t138.5 60.5q64 0 106.5 -40.5t45.5 -107.5zM113 272h182q27 0 27 21t-20 52t-71 31q-44 0 -76 -28.5t-42 -75.5z" />
    <glyph glyph-name="glyph117" horiz-adv-x="229" vert-adv-y="1301" 
d="M67 480l70 100q37 52 67 52q11 0 19.5 -7.5t8.5 -17.5q0 -21 -39 -48l-115 -79h-11zM222 -4q-31 4 -110 4t-110 -4v16l56 11q31 6 31 36v235q0 24 -12 35t-48 19v14q71 18 104 72h16v-378q0 -15 4.5 -22t17.5 -10l51 -12v-16z" />
    <glyph glyph-name="glyph118" horiz-adv-x="229" vert-adv-y="1301" 
d="M200 483l-5 -5l-88 59q-72 48 -72 71q0 8 8.5 16t19.5 8q30 0 76 -64zM222 -4q-31 4 -110 4t-110 -4v16l56 11q31 6 31 36v235q0 24 -12 35t-48 19v14q71 18 104 72h16v-378q0 -15 4.5 -22t17.5 -10l51 -12v-16z" />
    <glyph glyph-name="icircumflex" unicode="&#xee;" horiz-adv-x="229" vert-adv-y="1301" 
d="M224 477l-111 109l-103 -110v16l93 158h28l93 -158v-15zM222 -4q-31 4 -110 4t-110 -4v16l56 11q31 6 31 36v235q0 24 -12 35t-48 19v14q71 18 104 72h16v-378q0 -15 4.5 -22t17.5 -10l51 -12v-16z" />
    <glyph glyph-name="idieresis" unicode="&#xef;" horiz-adv-x="229" vert-adv-y="1301" 
d="M209 516q-16 0 -29 12t-13 29q0 18 12 30.5t30 12.5t30 -12t12 -30t-12 -30t-30 -12zM41 516q-16 0 -29 12t-13 29q0 18 12 30.5t29 12.5q18 0 30.5 -13t12.5 -29q0 -17 -12.5 -29.5t-29.5 -12.5zM222 -4q-31 4 -110 4t-110 -4v16l56 11q31 6 31 36v235q0 24 -12 35
t-48 19v14q71 18 104 72h16v-378q0 -15 4.5 -22t17.5 -10l51 -12v-16z" />
    <glyph glyph-name="ntilde" unicode="&#xf1;" horiz-adv-x="510" vert-adv-y="1301" 
d="M396 604h15q1 -47 -21.5 -73.5t-59.5 -26.5q-34 0 -75 30q-40 29 -65 29q-37 0 -44 -58h-15q5 99 81 99q18 0 32 -5.5t45 -25.5q42 -28 65 -28q34 0 42 59zM500 -3q-52 3 -104 3t-104 -3v16l55 8q22 3 22 39v197q0 44 -25 70t-68 26q-64 0 -125 -61v-243q0 -16 24 -22
l59 -14v-16q-37 3 -108 3t-108 -3v16l53 10q20 3 20 30v198q0 31 -12.5 42t-44.5 16v18q64 15 101 90h16v-90q38 33 84 52.5t81 19.5q115 0 115 -137v-199q0 -19 5 -29t20 -13l44 -8v-16z" />
    <glyph glyph-name="glyph122" horiz-adv-x="510" vert-adv-y="1301" 
d="M208 480l70 100q37 52 67 52q11 0 19.5 -7.5t8.5 -17.5q0 -21 -39 -48l-115 -79h-11zM248 -16q-87 0 -148 58t-61 151q0 89 61 147.5t160 58.5q92 0 151 -61.5t59 -152.5q0 -83 -62.5 -142t-159.5 -59zM111 183q0 -83 39 -131.5t101 -48.5q64 0 105.5 51t41.5 135
q0 86 -39 138.5t-103 52.5q-69 0 -107 -50t-38 -147z" />
    <glyph glyph-name="glyph123" horiz-adv-x="510" vert-adv-y="1301" 
d="M351 482l-5 -5l-88 59q-72 49 -72 71q0 8 8 16t19 8q31 0 77 -64zM248 -16q-87 0 -148 58t-61 151q0 89 61 147.5t160 58.5q92 0 151 -61.5t59 -152.5q0 -83 -62.5 -142t-159.5 -59zM111 183q0 -83 39 -131.5t101 -48.5q64 0 105.5 51t41.5 135q0 86 -39 138.5t-103 52.5
q-69 0 -107 -50t-38 -147z" />
    <glyph glyph-name="ocircumflex" unicode="&#xf4;" horiz-adv-x="510" vert-adv-y="1301" 
d="M375 477l-111 109l-103 -110v16l93 158h28l93 -158v-15zM248 -16q-87 0 -148 58t-61 151q0 89 61 147.5t160 58.5q92 0 151 -61.5t59 -152.5q0 -83 -62.5 -142t-159.5 -59zM111 183q0 -83 39 -131.5t101 -48.5q64 0 105.5 51t41.5 135q0 86 -39 138.5t-103 52.5
q-69 0 -107 -50t-38 -147z" />
    <glyph glyph-name="odieresis" unicode="&#xf6;" horiz-adv-x="510" vert-adv-y="1301" 
d="M354 516q-16 0 -29 12t-13 29q0 18 12 30.5t30 12.5t30 -12t12 -30t-12 -30t-30 -12zM186 516q-16 0 -29 12t-13 29q0 18 12 30.5t29 12.5q18 0 30.5 -13t12.5 -29q0 -17 -12.5 -29.5t-29.5 -12.5zM248 -16q-87 0 -148 58t-61 151q0 89 61 147.5t160 58.5q92 0 151 -61.5
t59 -152.5q0 -83 -62.5 -142t-159.5 -59zM111 183q0 -83 39 -131.5t101 -48.5q64 0 105.5 51t41.5 135q0 86 -39 138.5t-103 52.5q-69 0 -107 -50t-38 -147z" />
    <glyph glyph-name="otilde" unicode="&#xf5;" horiz-adv-x="510" vert-adv-y="1301" 
d="M397 604h15q1 -47 -21.5 -73.5t-59.5 -26.5q-34 0 -75 30q-40 29 -65 29q-37 0 -44 -58h-15q5 99 81 99q18 0 32 -5.5t45 -25.5q42 -28 65 -28q34 0 42 59zM248 -16q-87 0 -148 58t-61 151q0 89 61 147.5t160 58.5q92 0 151 -61.5t59 -152.5q0 -83 -62.5 -142t-159.5 -59
zM111 183q0 -83 39 -131.5t101 -48.5q64 0 105.5 51t41.5 135q0 86 -39 138.5t-103 52.5q-69 0 -107 -50t-38 -147z" />
    <glyph glyph-name="glyph127" horiz-adv-x="490" vert-adv-y="1301" 
d="M197 480l70 100q37 52 67 52q11 0 19.5 -7.5t8.5 -17.5q0 -21 -39 -48l-115 -79h-11zM16 381h128v-258q0 -48 16.5 -68t62.5 -20q68 0 125 51v241q0 19 -15 25.5t-77 12.5v16h157v-294q0 -34 10.5 -41.5t59.5 -9.5l1 -15l-136 -36v76q-44 -38 -80 -57.5t-72 -19.5
q-50 0 -82.5 37t-32.5 98v209q0 18 -10.5 24.5t-54.5 14.5v14z" />
    <glyph glyph-name="glyph128" horiz-adv-x="490" vert-adv-y="1301" 
d="M310 483l-5 -5l-88 59q-71 49 -71 70q0 9 8.5 16.5t19.5 7.5q30 0 75 -63zM16 381h128v-258q0 -48 16.5 -68t62.5 -20q68 0 125 51v241q0 19 -15 25.5t-77 12.5v16h157v-294q0 -34 10.5 -41.5t59.5 -9.5l1 -15l-136 -36v76q-44 -38 -80 -57.5t-72 -19.5q-50 0 -82.5 37
t-32.5 98v209q0 18 -10.5 24.5t-54.5 14.5v14z" />
    <glyph glyph-name="ucircumflex" unicode="&#xfb;" horiz-adv-x="490" vert-adv-y="1301" 
d="M364 477l-111 109l-103 -110v16l93 158h28l93 -158v-15zM16 381h128v-258q0 -48 16.5 -68t62.5 -20q68 0 125 51v241q0 19 -15 25.5t-77 12.5v16h157v-294q0 -34 10.5 -41.5t59.5 -9.5l1 -15l-136 -36v76q-44 -38 -80 -57.5t-72 -19.5q-50 0 -82.5 37t-32.5 98v209
q0 18 -10.5 24.5t-54.5 14.5v14z" />
    <glyph glyph-name="glyph130" horiz-adv-x="490" vert-adv-y="1301" 
d="M329 516q-16 0 -29 12t-13 29q0 18 12 30.5t30 12.5t30 -12t12 -30t-12 -30t-30 -12zM161 516q-16 0 -29 12t-13 29q0 18 12 30.5t29 12.5q18 0 30.5 -13t12.5 -29q0 -17 -12.5 -29.5t-29.5 -12.5zM16 381h128v-258q0 -48 16.5 -68t62.5 -20q68 0 125 51v241
q0 19 -15 25.5t-77 12.5v16h157v-294q0 -34 10.5 -41.5t59.5 -9.5l1 -15l-136 -36v76q-44 -38 -80 -57.5t-72 -19.5q-50 0 -82.5 37t-32.5 98v209q0 18 -10.5 24.5t-54.5 14.5v14z" />
    <glyph glyph-name="dagger" unicode="&#x2020;" horiz-adv-x="427" vert-adv-y="1301" 
d="M193 339q-38 -2 -124 -19q-24 -5 -37 -5q-17 0 -24 7.5t-7 29.5q0 44 36 44q7 0 15 -1q107 -20 140 -20q-4 88 -22 222q-1 6 -1 12q0 32 40 32q23 0 32.5 -6t9.5 -26q0 -8 -9 -89t-13 -145q29 0 139 21q14 3 23 3q18 0 24.5 -12t6.5 -43q0 -29 -31 -29q-13 0 -33 5
q-56 12 -131 19l8 -164q5 -112 13.5 -223.5t8.5 -132.5q0 -35 -10 -49t-37 -14q-25 0 -34 13.5t-9 48.5q0 10 8.5 137.5t11.5 220.5z" />
    <glyph glyph-name="glyph132" horiz-adv-x="396" vert-adv-y="1301" 
d="M48 509q0 63 43.5 107t106.5 44t106.5 -44t43.5 -107q0 -61 -44.5 -105.5t-105.5 -44.5q-62 0 -106 44.5t-44 105.5zM307 510q0 45 -32 77t-77 32q-46 0 -77.5 -32t-31.5 -77t31.5 -77t77.5 -32q45 0 77 32t32 77z" />
    <glyph glyph-name="cent" unicode="&#xa2;" horiz-adv-x="417" vert-adv-y="1301" 
d="M339 579h19l-64 -184q91 -11 91 -56q0 -15 -11.5 -27t-25.5 -12q-23 0 -70 47l-101 -286q36 -32 83 -32q64 0 129 59v-33q-66 -71 -155 -71q-38 0 -79 14l-60 -168h-20l62 178q-47 31 -72.5 81.5t-25.5 103.5q0 89 59 146.5t153 57.5q11 0 23 -1zM160 76l101 282
q-17 6 -33 6q-47 0 -79.5 -46t-32.5 -118q0 -69 44 -124z" />
    <glyph glyph-name="sterling" unicode="&#xa3;" horiz-adv-x="573" vert-adv-y="1301" 
d="M134 -114l47 184l-132 6v17l138 4q80 323 126.5 400t91 107.5t113.5 30.5q39 0 60.5 -12.5t21.5 -31.5q0 -33 -24 -33q-20 0 -46 23q-35 31 -64 31q-30 0 -61.5 -36.5t-56.5 -109t-95 -365.5l127 -6l-9 -25l-129 -3q-31 -81 -83 -175q48 22 82 22q26 0 53.5 -13.5
t75.5 -52.5q55 -45 79 -45q20 0 44.5 25t24.5 52q0 15 -8 32q-12 24 -12 40q0 25 27 25q19 0 29.5 -14.5t10.5 -38.5q0 -32 -21.5 -71t-64 -62t-75.5 -23q-43 0 -85 40q-76 71 -125 71q-43 0 -64 -52q-10 -27 -30.5 -44t-38.5 -17q-23 0 -23 21q0 19 20.5 41t75.5 58z" />
    <glyph glyph-name="glyph135" horiz-adv-x="427" vert-adv-y="1301" 
d="M343 541q-26 0 -68 38q-9 9 -30.5 17t-35.5 8q-20 0 -32 -17.5t-12 -43.5q0 -15 5 -30.5t28 -57.5t43 -73q45 -68 88.5 -156t51 -133t7.5 -82q0 -139 -59.5 -197t-148.5 -58q-40 0 -68.5 15t-28.5 47q0 19 9.5 31.5t25.5 12.5q8 0 18 -5t40 -26q43 -30 73 -30
q21 0 32.5 14.5t11.5 39.5q0 30 -11.5 58t-49.5 86q-79 121 -118 212.5t-39 183.5q0 76 29 139.5t78.5 86t99.5 22.5q47 0 73.5 -19t26.5 -44q0 -17 -11 -28t-28 -11zM316 -165q43 37 43 140q0 91 -38.5 178.5t-95.5 173.5q-72 109 -89 217q-30 -57 -30 -124
q0 -69 29 -154.5t103 -200.5q14 -21 42 -77.5t40 -86.5q-2 -44 -4 -66z" />
    <glyph glyph-name="bullet" unicode="&#x2022;" horiz-adv-x="354" vert-adv-y="1301" 
d="M55 331q0 50 36 86t86 36t86.5 -36t36.5 -86q0 -51 -36 -87t-87 -36t-86.5 36t-35.5 87z" />
    <glyph glyph-name="paragraph" unicode="&#xb6;" horiz-adv-x="448" vert-adv-y="1301" 
d="M390 635v-851h-36v851h-91v-851h-35v509q-235 3 -235 186q0 84 58.5 133.5t161.5 49.5h242v-27h-65z" />
    <glyph glyph-name="germandbls" unicode="&#xdf;" horiz-adv-x="500" vert-adv-y="1301" 
d="M7 -3v17l38 8q22 5 29.5 15.5t7.5 41.5v403q1 60 54.5 106.5t128.5 46.5q72 0 123 -45t51 -102q0 -50 -40.5 -85t-97.5 -48q-10 -3 -10 -6q0 -6 38 -20q141 -55 141 -178q0 -78 -45.5 -127t-105.5 -49q-24 0 -41.5 11.5t-17.5 27.5q0 12 7 20t19 8q18 0 37 -19
q15 -15 31 -15q8 0 14 4q12 15 19.5 52.5t7.5 78.5q0 44 -9.5 74t-37 59.5t-66.5 48.5q-25 12 -25 24q0 11 26 22q37 15 59 50t22 76q0 48 -28.5 80t-75.5 32q-58 0 -91 -32.5t-33 -90.5v-407q0 -24 6 -34.5t30 -17.5l42 -13v-17q-61 3 -114 3q-37 0 -93 -3z" />
    <glyph glyph-name="registered" unicode="&#xae;" horiz-adv-x="760" vert-adv-y="1301" 
d="M34 330q0 147 102 246.5t244 99.5q146 0 246.5 -101.5t100.5 -244.5q0 -145 -101.5 -245.5t-245.5 -100.5q-90 0 -171.5 46t-128 125.5t-46.5 174.5zM696 330q0 133 -92 224.5t-224 91.5q-130 0 -223 -92t-93 -224t94.5 -224t221.5 -92q132 0 224 91t92 225zM188 543h189
q67 0 106 -30.5t39 -78.5q0 -81 -108 -109l102 -145q15 -21 22 -28.5t15 -9.5l22 -6v-15h-90l-144 197h-37v-151q4 -19 17.5 -24.5t40.5 -5.5v-16h-179v16l23 2q15 2 21 17t6 48v255q0 61 -18 63l-27 3v18zM304 339h15q59 0 91.5 24t32.5 65t-27.5 67t-70.5 26q-20 0 -41 -7
v-175z" />
    <glyph glyph-name="copyright" unicode="&#xa9;" horiz-adv-x="760" vert-adv-y="1301" 
d="M34 330q0 147 102 246.5t244 99.5q146 0 246.5 -101.5t100.5 -244.5q0 -145 -101.5 -245.5t-245.5 -100.5q-90 0 -171.5 46t-128 125.5t-46.5 174.5zM696 330q0 133 -92 224.5t-224 91.5q-130 0 -223 -92t-93 -224t94.5 -224t221.5 -92q132 0 224 91t92 225zM551 553
l10 -137h-19q-36 115 -148 115q-72 0 -114.5 -50.5t-42.5 -139.5q0 -98 42 -149.5t120 -51.5q95 0 152 79l18 -10q-67 -99 -187 -99q-95 0 -160.5 63t-65.5 154q0 97 68.5 161.5t167.5 64.5q50 0 98 -18q12 -4 19 -4q13 0 23 22h19z" />
    <glyph glyph-name="trademark" unicode="&#x2122;" horiz-adv-x="979" vert-adv-y="1301" 
d="M25 625h355l11 -98h-16l-13 39q-4 12 -28 21t-54 9h-37v-283q0 -55 16 -58l36 -6v-18h-183v18l32 6q17 3 17 58v283h-37q-71 0 -82 -34l-11 -35h-16zM564 625l134 -279l129 279h136v-18l-28 -3q-15 -2 -20.5 -14t-5.5 -49v-228q0 -30 4.5 -44t17.5 -16l32 -4v-18h-194v18
l29 2q29 2 29 61v240l-150 -321h-15l-151 317v-235q0 -60 27 -62l36 -2v-18h-149v18l29 2q26 2 26 62v227q0 37 -6.5 49.5t-22.5 14.5l-26 3v18h139z" />
    <glyph glyph-name="acute" unicode="&#xb4;" horiz-adv-x="333" vert-adv-y="1301" 
d="M119 480l70 100q37 52 67 52q11 0 19.5 -7.5t8.5 -17.5q0 -21 -39 -48l-115 -79h-11z" />
    <glyph glyph-name="glyph143" horiz-adv-x="333" vert-adv-y="1301" 
d="M275 516q-17 0 -29.5 12t-12.5 29q0 18 12 30.5t30 12.5t30 -12t12 -30t-12 -30t-30 -12zM107 516q-17 0 -29.5 12t-12.5 29q0 18 12 30.5t29 12.5q18 0 30.5 -13t12.5 -29q0 -17 -12.5 -29.5t-29.5 -12.5z" />
    <glyph glyph-name="glyph144" horiz-adv-x="667" vert-adv-y="1301" 
d="M72 446h294l102 260h36l-99 -260h190v-43h-208l-71 -183h279v-44h-296l-103 -259h-37l103 259h-190v44h206l72 183h-278v43z" />
    <glyph glyph-name="AE" unicode="&#xc6;" horiz-adv-x="854" vert-adv-y="1301" 
d="M315 605l-101 -1v25q83 -4 279 -4q191 0 273 4q-3 -27 -3 -76q0 -36 2 -68h-13q-19 54 -33.5 79t-30.5 33t-44 8h-153q-17 0 -23 -9.5t-6 -32.5v-232h167q19 0 26 5.5t11 23.5l16 64h15q-3 -59 -3 -113t3 -113h-19l-11 72q-4 26 -19.5 32t-55.5 6h-130v-247
q0 -22 8 -30.5t34 -8.5h128q72 0 106 28.5t73 120.5h20q-20 -85 -27 -176q-132 5 -234 5q-170 0 -310 -5v19l90 7q20 2 25 8.5t5 24.5v250h-182l-101 -206q-19 -40 -19 -55q0 -17 30 -21l77 -9v-15q-19 2 -129 2q-79 0 -118 -3v16l58 6q17 2 28 12t28 44zM380 327v230
q0 28 -4.5 37t-16.5 9h-15l-135 -276h171z" />
    <glyph glyph-name="Oslash" unicode="&#xd8;" horiz-adv-x="781" vert-adv-y="1301" 
d="M621 557q112 -94 112 -245q0 -147 -95 -237.5t-249 -90.5q-114 0 -202 54l-58 -70l-20 16l57 69q-58 44 -89 110t-31 143q0 136 97 232.5t260 96.5q111 0 197 -62l73 87l20 -17zM202 96l367 440q-70 80 -180 80q-82 0 -140.5 -44t-85.5 -119.5t-27 -153.5q0 -115 66 -203
zM586 515l-367 -439q71 -74 166 -74q127 0 193.5 78t66.5 226q0 124 -59 209z" />
    <glyph glyph-name="glyph147" horiz-adv-x="708" vert-adv-y="1301" 
d="M317 380q30 72 69 103.5t112 31.5q79 0 133 -57.5t54 -145.5q0 -86 -52 -145.5t-119 -59.5q-46 0 -81 28t-83 112q-30 -60 -66.5 -87t-92.5 -27q-70 0 -118.5 51.5t-48.5 128.5t44.5 128t105.5 51q52 0 83 -28t60 -84zM364 281q31 -66 66.5 -97.5t85.5 -31.5q61 0 101 45
t40 115q0 68 -42 117t-96 49t-89.5 -51t-65.5 -146zM303 343q-24 54 -55 79t-76 25q-53 0 -87 -37.5t-34 -96.5q0 -61 33 -101.5t79 -40.5q28 0 49.5 11.5t44 49t46.5 111.5z" />
    <glyph glyph-name="glyph148" horiz-adv-x="667" vert-adv-y="1301" 
d="M71 419h240v242h43v-242h242v-43h-242v-240h-43v240h-240v43zM71 25h525v-43h-525v43z" />
    <glyph glyph-name="glyph149" horiz-adv-x="667" vert-adv-y="1301" 
d="M595 180l-523 222v39l523 221v-47l-467 -193l467 -194v-48zM71 23h525v-43h-525v43z" />
    <glyph glyph-name="glyph150" horiz-adv-x="667" vert-adv-y="1301" 
d="M72 662l523 -222v-39l-523 -221v47l466 193l-466 195v47zM71 23h525v-43h-525v43z" />
    <glyph glyph-name="yen" unicode="&#xa5;" horiz-adv-x="656" vert-adv-y="1301" 
d="M278 276h-213v23h198l-163 244q-40 60 -64 63l-44 6v16q20 -3 135 -3q93 0 134 3v-16l-63 -9q-27 -4 -27 -19q0 -5 4 -11l179 -274h2l171 246q15 22 15 35q0 18 -25 22l-64 10v16q9 -3 106 -3q82 0 105 4v-16l-34 -8q-30 -4 -85 -81l-160 -225h208v-23h-219
q-4 -14 -4 -51v-56h223v-23h-223v-85q0 -29 39 -35l75 -11v-18q-115 3 -152 3q-84 0 -150 -3v16l75 12q17 3 28 12.5t11 21.5v87h-231v23h231v57q0 25 -18 50z" />
    <glyph glyph-name="uni00B5" unicode="&#xb5;" horiz-adv-x="532" vert-adv-y="1301" 
d="M498 78l10 -6l-9 -23q-12 -31 -29.5 -48t-36.5 -17q-25 0 -47 21t-24 125q-11 -70 -48.5 -108t-84.5 -38q-38 0 -69 22t-48 63q9 -119 28 -189q14 -53 14 -83q0 -48 -40 -48q-24 0 -32 15t-8 50q0 26 4 74q9 102 9 211q0 85 -4 141t-4 78q0 41 9 59.5t35 18.5
q36 0 36 -42q0 -34 -23 -100q-22 -61 -22 -105q0 -52 31 -84.5t72 -32.5q55 0 84 55t29 263q0 22 6 30t24 8q23 0 32 -4.5t7 -17.5q-17 -81 -17 -171q0 -85 19 -118.5t44 -33.5t53 35z" />
    <glyph glyph-name="partialdiff" unicode="&#x2202;" horiz-adv-x="490" vert-adv-y="1301" 
d="M452 349q6 52 6 88q0 98 -50.5 143t-114.5 45q-45 0 -85 -20.5t-66 -58.5h-23q69 150 181 150q44 0 89.5 -25.5t70 -80.5t24.5 -142q0 -124 -39 -232.5t-105.5 -170t-144.5 -61.5q-76 0 -121 44t-45 119q0 120 83.5 207.5t186.5 87.5q101 0 153 -93zM443 306
q-18 52 -56 81t-84 29q-86 0 -138.5 -93.5t-52.5 -185.5q0 -59 25 -92t70 -33q69 0 137 79.5t99 214.5z" />
    <glyph glyph-name="glyph154" horiz-adv-x="713" vert-adv-y="1301" 
d="M671 -200h-607v18l285 382l-306 406v19h604l13 -165h-19q-8 64 -36.5 94.5t-85.5 30.5h-341l252 -342l-264 -357h365q42 0 69.5 8.5t48.5 34.5t34 77l19 -3z" />
    <glyph glyph-name="glyph155" horiz-adv-x="823" vert-adv-y="1301" 
d="M605 586h-388v-692q0 -32 14 -52.5t43 -21.5l40 -2v-18h-292v18l39 2q58 3 58 74v637q0 70 -59 73l-38 2v19h779v-19h-27q-69 0 -69 -75v-637q0 -69 55 -73l41 -3v-18h-292v18l39 1q57 1 57 75v692z" />
    <glyph glyph-name="glyph156" horiz-adv-x="531" vert-adv-y="1301" 
d="M491 446v-71h-113q-19 -105 -19 -192q0 -78 18 -97.5t43 -19.5q21 0 36 14.5t18 40.5h17q-10 -67 -36.5 -102t-59.5 -35q-34 0 -61.5 30.5t-27.5 148.5q0 105 18 212h-115l-11 -149q-6 -95 -27.5 -168.5t-58.5 -73.5q-20 0 -32 17.5t-12 27.5q0 17 34 63q19 26 28.5 55.5
t12.5 73.5l12 154q-51 0 -73.5 -16.5t-42.5 -52.5h-18q21 76 49.5 108t109.5 32h311z" />
    <glyph glyph-name="glyph157" horiz-adv-x="271" vert-adv-y="1301" 
d="M96 437l9 284q2 61 17 107t41 64t48 18q23 0 42 -16.5t19 -36.5q0 -22 -13.5 -37t-28.5 -15q-8 0 -13 4q-30 21 -48 21t-18 -23l16 -280q9 -153 9 -254q0 -135 -13 -225t-42.5 -122.5t-63.5 -32.5q-24 0 -41 16.5t-17 42.5q0 22 14 37t29 15q7 0 12 -4q32 -28 47 -28
q18 0 18 38q0 18 -4 47q-20 153 -20 323q0 27 1 57z" />
    <glyph glyph-name="ordfeminine" unicode="&#xaa;" horiz-adv-x="260" vert-adv-y="1301" 
d="M268 430q-15 -48 -59 -48q-40 0 -47 35q-49 -36 -94 -36q-19 0 -31 10.5t-12 27.5q0 21 25 48.5t113 61.5q2 12 2 23q0 27 -10 42.5t-26 15.5q-46 0 -56 -52q-2 -12 -11 -19t-22 -7q-22 0 -22 11q0 10 16.5 36t44.5 41t58 15q53 0 65 -22t12 -85v-83q0 -15 3 -21.5
t12 -6.5t25 20zM160 441l3 68q-82 -38 -82 -74q0 -24 22 -24q24 0 57 30z" />
    <glyph glyph-name="ordmasculine" unicode="&#xba;" horiz-adv-x="333" vert-adv-y="1301" 
d="M161 381q-60 0 -101.5 37.5t-41.5 88.5q0 55 42 91.5t110 36.5q62 0 103.5 -38.5t41.5 -91.5q0 -49 -44 -86.5t-110 -37.5zM79 505q0 -50 23 -78t61 -28q41 0 66 29.5t25 79.5q0 47 -23.5 78t-63.5 31q-88 0 -88 -112z" />
    <glyph glyph-name="uni2126" unicode="&#x2126;" horiz-adv-x="775" vert-adv-y="1301" 
d="M338 145l18 -145h-307v174l14 1q5 -67 33.5 -91.5t115.5 -24.5h98l-12 75q-231 65 -231 243q0 116 88 187t233 71q144 0 232 -70.5t88 -182.5q0 -92 -62.5 -159.5t-167.5 -88.5l-13 -75h99q61 0 86 6.5t37.5 29t24.5 79.5h13v-174h-306l18 145q182 32 182 236
q0 108 -64 172t-167 64q-106 0 -169 -65t-63 -179q0 -181 182 -228z" />
    <glyph glyph-name="ae" unicode="&#xe6;" horiz-adv-x="583" vert-adv-y="1301" 
d="M318 259q-2 -18 -2 -47q0 -47 6.5 -87t43.5 -66.5t70 -26.5q17 0 51.5 11.5t80.5 53.5v-29q-68 -84 -162 -84q-44 0 -76.5 19t-68.5 61q-94 -80 -155 -80q-25 0 -40 16.5t-15 42.5q0 54 56 95t146 89v68q0 79 -63 79q-30 0 -52.5 -26.5t-27.5 -68.5q-2 -20 -16 -32
t-29 -12q-22 0 -22 18t25 58.5t64 64t76 23.5q26 0 54.5 -15t44.5 -39q24 23 57.5 38.5t60.5 15.5q59 0 99 -40t40 -100h-246zM321 282h160q16 8 16 22q0 28 -24 50.5t-53 22.5q-38 0 -66.5 -26t-32.5 -69zM253 115v88q-137 -62 -137 -128q0 -19 12 -31t31 -12
q25 0 59.5 25.5t34.5 57.5z" />
    <glyph glyph-name="oslash" unicode="&#xf8;" horiz-adv-x="510" vert-adv-y="1301" 
d="M401 348q69 -64 69 -163q0 -83 -62.5 -142t-159.5 -59q-70 0 -124 38l-42 -49l-14 11l41 49q-70 61 -70 160q0 89 61 147.5t160 58.5q70 0 126 -39l45 53l14 -14zM138 67l221 261q-40 52 -103 52q-69 0 -107 -50t-38 -147q0 -68 27 -116zM370 311l-221 -259
q39 -49 102 -49q64 0 105.5 51t41.5 135q0 72 -28 122z" />
    <glyph glyph-name="questiondown" unicode="&#xbf;" horiz-adv-x="365" vert-adv-y="1301" 
d="M233 409q21 0 35.5 -14.5t14.5 -35.5t-14.5 -35.5t-35.5 -14.5t-35.5 14.5t-14.5 35.5t14.5 35.5t35.5 14.5zM265 83q-27 -11 -44 -11q-89 0 -128.5 -27t-39.5 -81q0 -59 41 -104t84 -45q18 0 52 9q18 5 33 5q41 0 41 -33q0 -41 -63 -41q-56 0 -109 36.5t-84.5 93.5
t-31.5 112q0 34 14.5 64.5t38.5 49.5t44 23t58 9q50 6 52 40l3 59h22z" />
    <glyph glyph-name="exclamdown" unicode="&#xa1;" horiz-adv-x="219" vert-adv-y="1301" 
d="M109 407q21 0 35.5 -14.5t14.5 -35.5t-14.5 -35.5t-35.5 -14.5t-35.5 14.5t-14.5 35.5t14.5 35.5t35.5 14.5zM119 254l18 -279q2 -39 8 -75q10 -66 10 -87q0 -24 -12.5 -38.5t-31.5 -14.5t-31.5 14.5t-12.5 38.5q0 21 10 87q6 34 8 75l16 279h18z" />
    <glyph glyph-name="logicalnot" unicode="&#xac;" horiz-adv-x="667" vert-adv-y="1301" 
d="M71 461h525v-281h-43v238h-482v43z" />
    <glyph glyph-name="glyph166" horiz-adv-x="552" vert-adv-y="1301" 
d="M514 913h36l-152 -951l-242 498l-97 -44l-17 31l147 74l198 -402z" />
    <glyph glyph-name="florin" unicode="&#x192;" horiz-adv-x="615" vert-adv-y="1301" 
d="M349 349l-86 -2l3 26l91 2q50 160 101 213.5t99 53.5q28 0 49.5 -17t21.5 -34q0 -11 -9 -20t-21 -9t-22 10t-14 27q-4 19 -24 19q-25 0 -54 -37.5t-78 -204.5l80 1l-1 -24l-86 -3q-39 -132 -80.5 -283t-77.5 -207t-71.5 -86.5t-89.5 -30.5q-33 0 -52 12t-19 32
q0 14 10 22t20 8q14 0 26 -21q17 -30 38 -30q13 0 30 10.5t31.5 24.5t41 75.5t59.5 177.5z" />
    <glyph glyph-name="glyph168" horiz-adv-x="667" vert-adv-y="1301" 
d="M572 502h23q-2 -69 -37.5 -105t-84.5 -36q-41 0 -120 34q-78 33 -113 44.5t-55 11.5q-74 0 -90 -89h-23q3 67 36 104t81 37q45 0 178 -57q82 -35 119 -35q29 0 55 22.5t31 68.5zM572 260h23q-2 -70 -37.5 -105.5t-84.5 -35.5q-37 0 -102 28q-145 62 -186 62
q-73 0 -90 -89h-23q4 67 36.5 104t79.5 37t179 -56q87 -37 120 -37q24 0 52.5 22.5t32.5 69.5z" />
    <glyph glyph-name="uni2206" unicode="&#x2206;" horiz-adv-x="615" vert-adv-y="1301" 
d="M600 0h-586l307 677zM485 40l-195 472l-215 -472h410z" />
    <glyph glyph-name="guillemotleft" unicode="&#xab;" horiz-adv-x="365" vert-adv-y="1301" 
d="M183 196l152 194h30l-108 -192l109 -192l-26 -1zM157 390h29l-105 -192l110 -193h-24l-161 192z" />
    <glyph glyph-name="guillemotright" unicode="&#xbb;" horiz-adv-x="365" vert-adv-y="1301" 
d="M177 390h23l161 -193l-153 -192h-31l108 192zM111 199l-110 191h27l157 -191l-156 -194h-28z" />
    <glyph glyph-name="glyph172" vert-adv-y="1301" 
d="M115 44q0 22 15 37t37 15t37 -15t15 -37t-15 -37t-37 -15t-37 15t-15 37zM449 43q0 22 15.5 37.5t37.5 15.5t37.5 -15.5t15.5 -37.5t-15.5 -37t-37.5 -15t-37.5 15t-15.5 37zM782 44q0 22 15 37t37 15t37 -15t15 -37t-15 -37t-37 -15t-37 15t-15 37z" />
    <glyph glyph-name="uni00A0" unicode="&#xa0;" horiz-adv-x="250" vert-adv-y="1301" 
 />
    <glyph glyph-name="Agrave" unicode="&#xc0;" horiz-adv-x="677" vert-adv-y="1301" 
d="M415 686h-11l-115 79q-39 27 -39 48q0 10 8.5 17.5t19.5 7.5q31 0 67 -52zM224 284l-80 -232q-3 -10 -3 -16q0 -8 6 -12t25 -5l70 -5v-16q-19 2 -123 2t-123 -2v16l63 5q33 3 46 37l224 604h29l221 -597q7 -17 13 -23t22 -11l55 -17v-15q-51 3 -131 3t-131 -3v15l66 10
q19 3 26.5 7t7.5 12q0 6 -5 20l-81 223h-197zM413 306l-93 258l-88 -258h181z" />
    <glyph glyph-name="Atilde" unicode="&#xc3;" horiz-adv-x="677" vert-adv-y="1301" 
d="M480 785h14q3 -46 -20 -73t-60 -27q-34 0 -75 30q-40 29 -65 29q-36 0 -44 -58h-14q-4 27 15.5 63t64.5 36q19 0 35 -7t42 -24q43 -28 64 -28q36 0 43 59zM224 284l-80 -232q-3 -10 -3 -16q0 -8 6 -12t25 -5l70 -5v-16q-19 2 -123 2t-123 -2v16l63 5q33 3 46 37l224 604
h29l221 -597q7 -17 13 -23t22 -11l55 -17v-15q-51 3 -131 3t-131 -3v15l66 10q19 3 26.5 7t7.5 12q0 6 -5 20l-81 223h-197zM413 306l-93 258l-88 -258h181z" />
    <glyph glyph-name="Otilde" unicode="&#xd5;" horiz-adv-x="781" vert-adv-y="1301" 
d="M532 785h14q3 -46 -20 -73t-60 -27q-34 0 -75 30q-40 29 -65 29q-36 0 -44 -58h-14q-4 27 15.5 63t64.5 36q19 0 35 -7t42 -24q43 -28 64 -28q36 0 43 59zM389 -16q-153 0 -248 91t-95 231q0 136 97 232.5t260 96.5q138 0 234 -92.5t96 -230.5q0 -147 -95 -237.5
t-249 -90.5zM136 299q0 -119 71.5 -208t177.5 -89q127 0 193.5 78t66.5 226q0 138 -70.5 224t-185.5 86q-82 0 -140.5 -44t-85.5 -119.5t-27 -153.5z" />
    <glyph glyph-name="OE" unicode="&#x152;" horiz-adv-x="938" vert-adv-y="1301" 
d="M416 0q-35 -16 -76 -16q-115 0 -204.5 88.5t-89.5 229.5q0 82 38.5 162t107 125.5t157.5 45.5q33 0 72 -5l38 -5h322q67 0 96 5q-3 -30 -3 -72q0 -32 2 -63h-15q-23 55 -34.5 76.5t-20.5 27t-26 5.5h-180q-17 0 -23 -9.5t-6 -32.5v-223h167q25 0 40 8.5t18 22.5l13 69h18
q-3 -60 -3 -119q0 -57 3 -117h-17l-15 75q-4 21 -17 30t-42 9h-165v-255q0 -22 8 -30.5t34 -8.5h140q30 0 50.5 9.5t42 39.5t48.5 91h20q-22 -86 -25 -167q-43 4 -117 4h-356zM490 149v344q0 67 -31 95.5t-96 28.5q-105 0 -160 -75.5t-55 -224.5t55.5 -231t139.5 -82
q68 0 107.5 39t39.5 106z" />
    <glyph glyph-name="oe" unicode="&#x153;" horiz-adv-x="698" vert-adv-y="1301" 
d="M376 344q67 55 129 55q58 0 106 -41.5t55 -107.5h-253q-3 -21 -3 -59q0 -82 13.5 -110.5t38 -41.5t56.5 -13q37 0 67 13t66 43l9 -15q-64 -83 -165 -83q-37 0 -66 14.5t-61 45.5q-40 -32 -67.5 -46t-73.5 -14q-76 0 -132.5 59.5t-56.5 140.5q0 99 58.5 157t146.5 58
q80 0 133 -55zM230 378q-57 0 -87 -44t-30 -130q0 -95 32.5 -146.5t94.5 -51.5q110 0 110 189q0 86 -32.5 134.5t-87.5 48.5zM414 275h146q13 0 22.5 11t9.5 24q0 25 -26 46.5t-62 21.5q-34 0 -58.5 -26.5t-31.5 -76.5z" />
    <glyph glyph-name="glyph179" horiz-adv-x="500" vert-adv-y="1301" 
d="M-6 214h512v-46h-512v46z" />
    <glyph glyph-name="glyph180" vert-adv-y="1301" 
d="M-6 214h1012v-46h-1012v46z" />
    <glyph glyph-name="glyph181" horiz-adv-x="448" vert-adv-y="1301" 
d="M425 615q-46 -20 -74.5 -49t-28.5 -59t26 -30q5 0 11 2q8 2 16 2q17 0 27.5 -11.5t10.5 -28.5q0 -20 -13 -34.5t-38 -14.5q-32 0 -56.5 24.5t-24.5 65.5q0 45 33 86t106 69zM195 614q-103 -45 -103 -105q0 -30 27 -30q5 0 11 1t12 1q18 0 29.5 -11.5t11.5 -28.5
q0 -18 -14 -33t-38 -15q-32 0 -57 25.5t-25 65.5q0 39 29.5 80t114.5 72z" />
    <glyph glyph-name="glyph182" horiz-adv-x="448" vert-adv-y="1301" 
d="M40 395l-5 23q58 42 74.5 63.5t16.5 46.5q0 30 -22 30q-4 0 -9 -1q-8 -2 -15 -2q-17 0 -28.5 12t-11.5 30q0 19 14 32.5t38 13.5q32 0 58 -24t26 -64q0 -96 -136 -160zM277 395l-5 23q58 42 74.5 63.5t16.5 46.5q0 30 -22 30q-4 0 -9 -1q-8 -2 -15 -2q-17 0 -28.5 12
t-11.5 30q0 19 14 32.5t38 13.5q32 0 58 -24t26 -64q0 -96 -136 -160z" />
    <glyph glyph-name="glyph183" horiz-adv-x="219" vert-adv-y="1301" 
d="M204 620q-60 -28 -82 -58.5t-22 -49.5q0 -13 8 -22t21 -9q6 0 12 2q7 2 13 2q17 0 28 -12.5t11 -29.5q0 -20 -18 -35t-41 -15q-29 0 -54 29.5t-25 65.5q0 43 36.5 86.5t108.5 66.5z" />
    <glyph glyph-name="glyph184" horiz-adv-x="219" vert-adv-y="1301" 
d="M53 393l-3 22q38 17 65 49t27 56q0 14 -8.5 24t-21.5 10q-4 0 -8 -1q-6 -2 -12 -2q-18 0 -29 12t-11 28q0 19 16 32t40 13q31 0 58 -25t27 -63q0 -48 -41.5 -94.5t-98.5 -60.5z" />
    <glyph glyph-name="glyph185" horiz-adv-x="549" vert-adv-y="1301" 
d="M231 482q0 17 13 30t30 13t30 -13t13 -30t-13 -29.5t-30 -12.5t-30 12.5t-13 29.5zM538 312h-527v41h527v-41zM231 179q0 18 12.5 30.5t30.5 12.5t30.5 -12.5t12.5 -30.5t-12.5 -30.5t-30.5 -12.5t-30.5 12.5t-12.5 30.5z" />
    <glyph glyph-name="lozenge" unicode="&#x25ca;" horiz-adv-x="494" vert-adv-y="1301" 
d="M268 694l204 -348l-204 -346h-54l-191 346l191 348h54zM242 647l-166 -301l166 -300l175 300z" />
    <glyph glyph-name="ydieresis" unicode="&#xff;" horiz-adv-x="417" vert-adv-y="1301" 
d="M96 558q0 17 12.5 29.5t29.5 12.5t29.5 -12.5t12.5 -29.5t-12.5 -29.5t-29.5 -12.5t-29.5 12.5t-12.5 29.5zM264 558q0 17 12.5 29.5t29.5 12.5t29.5 -12.5t12.5 -29.5t-12.5 -29.5t-29.5 -12.5t-29.5 12.5t-12.5 29.5zM3 386q63 -5 100 -5q59 0 101 5v-16l-61 -12
q-15 -3 -15 -14q0 -4 3 -13l101 -285l93 258q5 13 5 24q0 24 -18 28l-56 14v16q45 -5 85 -5q35 0 85 5v-16l-32 -9q-14 -4 -24 -16.5t-24 -50.5l-169 -446q-17 -47 -42 -71t-53 -24q-43 0 -43 32q0 36 37 36q13 0 31 -4q8 -2 13 -2q8 0 13.5 5t22.5 34.5t29.5 64.5t12.5 46
q0 17 -10 43l-122 323q-8 23 -26 28l-37 11v16z" />
    <glyph glyph-name="Ydieresis" unicode="&#x178;" horiz-adv-x="656" vert-adv-y="1301" 
d="M226 729q0 17 12.5 29.5t29.5 12.5t29.5 -12.5t12.5 -29.5t-12.5 -29.5t-29.5 -12.5t-29.5 12.5t-12.5 29.5zM394 729q0 17 12.5 29.5t29.5 12.5t29.5 -12.5t12.5 -29.5t-12.5 -29.5t-29.5 -12.5t-29.5 12.5t-12.5 29.5zM409 26l75 -11v-18q-115 3 -152 3q-84 0 -150 -3
v16l75 12q17 3 28 12.5t11 21.5v167q0 23 -18 50l-178 267q-40 60 -64 63l-44 6v16q20 -3 135 -3q93 0 134 3v-16l-63 -9q-27 -4 -27 -19q0 -5 4 -11l180 -276l172 248q15 22 15 35q0 18 -25 22l-64 10v16q9 -3 106 -3q82 0 105 4v-16l-34 -8q-30 -4 -85 -81l-161 -226
q-8 -11 -11 -26t-3 -47v-164q0 -29 39 -35z" />
    <glyph glyph-name="glyph189" horiz-adv-x="188" vert-adv-y="1301" 
d="M-140 -33l421 669h34l-423 -669h-32z" />
    <glyph glyph-name="glyph190" horiz-adv-x="677" vert-adv-y="1301" 
d="M565 125l-36 -36l-61 61q-66 -48 -137 -48q-70 0 -134 48l-62 -61l-36 36l61 61q-47 61 -47 136q0 73 47 136l-61 60l36 37l61 -61q67 48 137 48q69 0 135 -48l61 61l36 -37l-61 -61q47 -64 47 -136q0 -71 -46 -133zM332 155q69 0 118 48.5t49 117.5t-49 118t-118 49
t-118 -49t-49 -118t49 -117.5t118 -48.5z" />
    <glyph glyph-name="guilsinglleft" unicode="&#x2039;" horiz-adv-x="198" vert-adv-y="1301" 
d="M190 393l-106 -194l109 -193h-28l-158 193l155 194h28z" />
    <glyph glyph-name="guilsinglright" unicode="&#x203a;" horiz-adv-x="198" vert-adv-y="1301" 
d="M113 200l-105 195h27l156 -196l-159 -191h-28z" />
    <glyph glyph-name="uniFB01" unicode="&#xfb01;" horiz-adv-x="542" vert-adv-y="1301" 
d="M442 419h13v-364q0 -18 4 -23.5t19 -7.5l44 -7v-18q-37 1 -104 1q-31 0 -106 -2v19l56 7q13 2 18.5 8t5.5 24v258h-215v-259q0 -18 4 -23.5t20 -7.5l56 -7v-18q-36 1 -116 1q-66 0 -97 -1v19l47 6q14 2 20 8t6 24v245l-70 -2v17l43 16q9 3 15.5 12.5t7.5 18.5
q18 178 92 234t157 56q39 0 67 -7.5t28 -32.5q0 -14 -10 -24.5t-29 -10.5q-26 0 -57 18q-33 19 -66 19q-55 0 -87 -50.5t-33 -216.5h166q51 0 101 71z" />
    <glyph glyph-name="uniFB02" unicode="&#xfb02;" horiz-adv-x="542" vert-adv-y="1301" 
d="M442 54q0 -18 5.5 -23.5t20.5 -7.5l45 -7v-17q-35 1 -105 1q-63 0 -98 -2v18l48 7q14 2 19 9t5 23v278h-207v-279q0 -18 4.5 -23t21.5 -8l45 -7v-17q-52 1 -156 1q-21 0 -46 -1v18l47 6q13 2 18.5 7t5.5 25v266l-67 3v16l42 13q17 5 19 20q17 132 71 201.5t128 69.5
q39 0 88 -19l31 28h15v-599zM175 365h207v194q0 11 -31.5 33.5t-57.5 22.5q-27 0 -57.5 -20t-46.5 -68.5t-16 -113.5q0 -24 2 -48z" />
    <glyph glyph-name="daggerdbl" unicode="&#x2021;" horiz-adv-x="427" vert-adv-y="1301" 
d="M181 184q-1 11 0 27l22 175l-137 -25q-16 -3 -23 -3q-15 0 -20.5 7.5t-5.5 30.5q0 25 6 31t20 6q8 0 23 -2l137 -21l-24 181q-2 12 -2 20q0 18 9 25t29 7q26 0 32 -6.5t6 -20.5q0 -9 -2 -22l-23 -184l135 22q14 2 23 2q14 0 20 -6t6 -31q0 -23 -5.5 -30.5t-20.5 -7.5
q-8 0 -23 3l-136 25l19 -176q1 -12 0 -28l-19 -170l136 25q15 3 23 3q15 0 20.5 -7.5t5.5 -30.5q0 -25 -6 -31t-20 -6q-8 0 -23 2l-135 22l23 -182q2 -14 2 -22q0 -14 -6 -20.5t-32 -6.5q-20 0 -29 7t-9 25q0 8 2 20l24 179l-137 -21q-15 -2 -23 -2q-14 0 -20 6t-6 31
q0 23 5.5 30.5t20.5 7.5q8 0 23 -3l137 -25z" />
    <glyph glyph-name="uni2219" unicode="&#x2219;" horiz-adv-x="219" vert-adv-y="1301" 
d="M58 300q0 23 14.5 38.5t36.5 15.5t36.5 -15.5t14.5 -38.5t-14.5 -38.5t-36.5 -15.5t-36.5 15.5t-14.5 38.5z" />
    <glyph glyph-name="quotesinglbase" unicode="&#x201a;" horiz-adv-x="219" vert-adv-y="1301" 
d="M47 -175v24q42 21 66.5 49t24.5 55q0 32 -31 32l-17 -1q-18 0 -29.5 11t-11.5 27q0 18 15 32.5t39 14.5q31 0 58.5 -25t27.5 -66q0 -54 -47 -98t-95 -55z" />
    <glyph glyph-name="quotedblbase" unicode="&#x201e;" horiz-adv-x="448" vert-adv-y="1301" 
d="M32 -172v17q99 46 99 98q0 16 -9 25t-37 18q-46 13 -46 40q0 46 50 46q38 0 65.5 -30.5t27.5 -75.5q0 -42 -41.5 -82t-108.5 -56zM260 -173v17q96 46 96 97q0 37 -44 44q-48 8 -48 36q0 20 12 35t40 15q36 0 63 -28t27 -70t-28 -82t-118 -64z" />
    <glyph glyph-name="glyph199" horiz-adv-x="1021" vert-adv-y="1301" 
d="M120 -31l419 669h36l-423 -669h-32zM162 637q53 0 88 -47t35 -126q0 -72 -37.5 -119.5t-86.5 -47.5q-53 0 -89 45t-36 120q0 78 36.5 126.5t89.5 48.5zM162 314q38 0 53 36t15 114q0 82 -13 118.5t-55 36.5t-56 -37.5t-14 -118.5q0 -78 15 -113.5t55 -35.5zM548 333
q53 0 88 -47t35 -126q0 -72 -37.5 -119.5t-86.5 -47.5q-53 0 -89 45t-36 120q0 78 36.5 126.5t89.5 48.5zM548 10q38 0 53 36t15 114q0 82 -13 118.5t-55 36.5t-56 -37.5t-14 -118.5q0 -78 15 -113.5t55 -35.5zM865 332q53 0 88 -47t35 -126q0 -72 -37.5 -119.5t-86.5 -47.5
q-53 0 -89 45t-36 120q0 78 36.5 126.5t89.5 48.5zM865 9q38 0 53 36t15 114q0 82 -13 118.5t-55 36.5t-56 -37.5t-14 -118.5q0 -78 15 -113.5t55 -35.5z" />
    <glyph glyph-name="Acircumflex" unicode="&#xc2;" horiz-adv-x="677" vert-adv-y="1301" 
d="M233 701l92 159h29l93 -158l-2 -13l-109 107l-103 -110v15zM224 284l-80 -232q-3 -10 -3 -16q0 -8 6 -12t25 -5l70 -5v-16q-19 2 -123 2t-123 -2v16l63 5q33 3 46 37l224 604h29l221 -597q7 -17 13 -23t22 -11l55 -17v-15q-51 3 -131 3t-131 -3v15l66 10q19 3 26.5 7
t7.5 12q0 6 -5 20l-81 223h-197zM413 306l-93 258l-88 -258h181z" />
    <glyph glyph-name="Ecircumflex" unicode="&#xca;" horiz-adv-x="656" vert-adv-y="1301" 
d="M233 700l92 159h29l93 -158l-2 -13l-109 107l-103 -110v15zM633 162q-22 -92 -25 -165q-124 3 -292 3t-292 -3v17l72 5q17 1 23.5 7t6.5 28v503q0 24 -5.5 34.5t-19.5 11.5l-73 7v18q81 -3 269 -3q190 0 269 3q-3 -31 -3 -74q0 -33 2 -65h-13q-22 55 -34 78.5t-22 30.5
t-27 7h-232q-17 0 -23 -9.5t-6 -32.5v-230h225q17 0 25 5.5t12 24.5l13 70h20q-3 -59 -3 -120q0 -60 3 -120h-12l-22 78q-7 22 -20 30.5t-39 8.5h-202v-249q0 -22 8 -30.5t34 -8.5h222q30 0 50.5 9.5t42 39.5t48.5 91h20z" />
    <glyph glyph-name="Aacute" unicode="&#xc1;" horiz-adv-x="677" vert-adv-y="1301" 
d="M291 686l70 100q37 52 67 52q11 0 19.5 -7.5t8.5 -17.5q0 -21 -39 -48l-115 -79h-11zM224 284l-80 -232q-3 -10 -3 -16q0 -8 6 -12t25 -5l70 -5v-16q-19 2 -123 2t-123 -2v16l63 5q33 3 46 37l224 604h29l221 -597q7 -17 13 -23t22 -11l55 -17v-15q-51 3 -131 3t-131 -3
v15l66 10q19 3 26.5 7t7.5 12q0 6 -5 20l-81 223h-197zM413 306l-93 258l-88 -258h181z" />
    <glyph glyph-name="Edieresis" unicode="&#xcb;" horiz-adv-x="656" vert-adv-y="1301" 
d="M227 729q0 17 12.5 29.5t29.5 12.5t29.5 -12.5t12.5 -29.5t-12.5 -29.5t-29.5 -12.5t-29.5 12.5t-12.5 29.5zM395 729q0 17 12.5 29.5t29.5 12.5t29.5 -12.5t12.5 -29.5t-12.5 -29.5t-29.5 -12.5t-29.5 12.5t-12.5 29.5zM633 162q-22 -92 -25 -165q-124 3 -292 3t-292 -3
v17l72 5q17 1 23.5 7t6.5 28v503q0 24 -5.5 34.5t-19.5 11.5l-73 7v18q81 -3 269 -3q190 0 269 3q-3 -31 -3 -74q0 -33 2 -65h-13q-22 55 -34 78.5t-22 30.5t-27 7h-232q-17 0 -23 -9.5t-6 -32.5v-230h225q17 0 25 5.5t12 24.5l13 70h20q-3 -59 -3 -120q0 -60 3 -120h-12
l-22 78q-7 22 -20 30.5t-39 8.5h-202v-249q0 -22 8 -30.5t34 -8.5h222q30 0 50.5 9.5t42 39.5t48.5 91h20z" />
    <glyph glyph-name="Egrave" unicode="&#xc8;" horiz-adv-x="656" vert-adv-y="1301" 
d="M424 686h-11l-115 79q-39 27 -39 48q0 10 8.5 17.5t19.5 7.5q31 0 67 -52zM633 162q-22 -92 -25 -165q-124 3 -292 3t-292 -3v17l72 5q17 1 23.5 7t6.5 28v503q0 24 -5.5 34.5t-19.5 11.5l-73 7v18q81 -3 269 -3q190 0 269 3q-3 -31 -3 -74q0 -33 2 -65h-13
q-22 55 -34 78.5t-22 30.5t-27 7h-232q-17 0 -23 -9.5t-6 -32.5v-230h225q17 0 25 5.5t12 24.5l13 70h20q-3 -59 -3 -120q0 -60 3 -120h-12l-22 78q-7 22 -20 30.5t-39 8.5h-202v-249q0 -22 8 -30.5t34 -8.5h222q30 0 50.5 9.5t42 39.5t48.5 91h20z" />
    <glyph glyph-name="Iacute" unicode="&#xcd;" horiz-adv-x="354" vert-adv-y="1301" 
d="M109 686l70 100q37 52 67 52q11 0 19.5 -7.5t8.5 -17.5q0 -21 -39 -48l-115 -79h-11zM139 54v517q0 17 -5.5 24t-19.5 8l-88 9v16q11 -3 210 -3q59 0 94 3v-17l-88 -9q-14 -1 -19.5 -7t-5.5 -24v-517q0 -17 5 -22.5t20 -6.5l88 -5v-24q-40 4 -152 4t-152 -4v24l88 5
q15 2 20 7t5 22z" />
    <glyph glyph-name="Icircumflex" unicode="&#xce;" horiz-adv-x="354" vert-adv-y="1301" 
d="M72 700l92 159h29l93 -158l-2 -13l-109 107l-103 -110v15zM139 54v517q0 17 -5.5 24t-19.5 8l-88 9v16q11 -3 210 -3q59 0 94 3v-17l-88 -9q-14 -1 -19.5 -7t-5.5 -24v-517q0 -17 5 -22.5t20 -6.5l88 -5v-24q-40 4 -152 4t-152 -4v24l88 5q15 2 20 7t5 22z" />
    <glyph glyph-name="Idieresis" unicode="&#xcf;" horiz-adv-x="354" vert-adv-y="1301" 
d="M60 729q0 17 12.5 29.5t29.5 12.5t29.5 -12.5t12.5 -29.5t-12.5 -29.5t-29.5 -12.5t-29.5 12.5t-12.5 29.5zM228 729q0 17 12.5 29.5t29.5 12.5t29.5 -12.5t12.5 -29.5t-12.5 -29.5t-29.5 -12.5t-29.5 12.5t-12.5 29.5zM139 54v517q0 17 -5.5 24t-19.5 8l-88 9v16
q11 -3 210 -3q59 0 94 3v-17l-88 -9q-14 -1 -19.5 -7t-5.5 -24v-517q0 -17 5 -22.5t20 -6.5l88 -5v-24q-40 4 -152 4t-152 -4v24l88 5q15 2 20 7t5 22z" />
    <glyph glyph-name="Igrave" unicode="&#xcc;" horiz-adv-x="354" vert-adv-y="1301" 
d="M262 686h-11l-115 79q-39 27 -39 48q0 10 8.5 17.5t19.5 7.5q31 0 67 -52zM139 54v517q0 17 -5.5 24t-19.5 8l-88 9v16q11 -3 210 -3q59 0 94 3v-17l-88 -9q-14 -1 -19.5 -7t-5.5 -24v-517q0 -17 5 -22.5t20 -6.5l88 -5v-24q-40 4 -152 4t-152 -4v24l88 5q15 2 20 7t5 22
z" />
    <glyph glyph-name="Oacute" unicode="&#xd3;" horiz-adv-x="781" vert-adv-y="1301" 
d="M342 686l70 100q37 52 67 52q11 0 19.5 -7.5t8.5 -17.5q0 -21 -39 -48l-115 -79h-11zM389 -16q-153 0 -248 91t-95 231q0 136 97 232.5t260 96.5q138 0 234 -92.5t96 -230.5q0 -147 -95 -237.5t-249 -90.5zM136 299q0 -119 71.5 -208t177.5 -89q127 0 193.5 78t66.5 226
q0 138 -70.5 224t-185.5 86q-82 0 -140.5 -44t-85.5 -119.5t-27 -153.5z" />
    <glyph glyph-name="Ocircumflex" unicode="&#xd4;" horiz-adv-x="781" vert-adv-y="1301" 
d="M295 700l92 159h29l93 -158l-2 -13l-109 107l-103 -110v15zM389 -16q-153 0 -248 91t-95 231q0 136 97 232.5t260 96.5q138 0 234 -92.5t96 -230.5q0 -147 -95 -237.5t-249 -90.5zM136 299q0 -119 71.5 -208t177.5 -89q127 0 193.5 78t66.5 226q0 138 -70.5 224
t-185.5 86q-82 0 -140.5 -44t-85.5 -119.5t-27 -153.5z" />
    <glyph glyph-name="glyph211" vert-adv-y="1301" 
 />
    <glyph glyph-name="Ograve" unicode="&#xd2;" horiz-adv-x="781" vert-adv-y="1301" 
d="M486 686h-11l-115 79q-39 27 -39 48q0 10 8.5 17.5t19.5 7.5q31 0 67 -52zM389 -16q-153 0 -248 91t-95 231q0 136 97 232.5t260 96.5q138 0 234 -92.5t96 -230.5q0 -147 -95 -237.5t-249 -90.5zM136 299q0 -119 71.5 -208t177.5 -89q127 0 193.5 78t66.5 226
q0 138 -70.5 224t-185.5 86q-82 0 -140.5 -44t-85.5 -119.5t-27 -153.5z" />
    <glyph glyph-name="Uacute" unicode="&#xda;" horiz-adv-x="708" vert-adv-y="1301" 
d="M307 686l70 100q37 52 67 52q11 0 19.5 -7.5t8.5 -17.5q0 -21 -39 -48l-115 -79h-11zM288 628v-16l-63 -8q-18 -2 -25.5 -13.5t-7.5 -36.5v-357q0 -96 40 -138.5t131 -42.5q122 0 164.5 56.5t42.5 203.5v277q0 40 -41 48l-59 11v16q24 -3 102 -3t103 3v-16l-58 -13
q-22 -4 -22 -46v-303q0 -140 -52 -203t-177 -63q-122 0 -187.5 51t-65.5 147v375q0 24 -5 34.5t-19 12.5l-71 8v16q66 -3 135 -3q99 0 135 3z" />
    <glyph glyph-name="Ucircumflex" unicode="&#xdb;" horiz-adv-x="708" vert-adv-y="1301" 
d="M259 700l92 159h29l93 -158l-2 -13l-109 107l-103 -110v15zM288 628v-16l-63 -8q-18 -2 -25.5 -13.5t-7.5 -36.5v-357q0 -96 40 -138.5t131 -42.5q122 0 164.5 56.5t42.5 203.5v277q0 40 -41 48l-59 11v16q24 -3 102 -3t103 3v-16l-58 -13q-22 -4 -22 -46v-303
q0 -140 -52 -203t-177 -63q-122 0 -187.5 51t-65.5 147v375q0 24 -5 34.5t-19 12.5l-71 8v16q66 -3 135 -3q99 0 135 3z" />
    <glyph glyph-name="Ugrave" unicode="&#xd9;" horiz-adv-x="708" vert-adv-y="1301" 
d="M450 686h-11l-115 79q-39 27 -39 48q0 10 8.5 17.5t19.5 7.5q31 0 67 -52zM288 628v-16l-63 -8q-18 -2 -25.5 -13.5t-7.5 -36.5v-357q0 -96 40 -138.5t131 -42.5q122 0 164.5 56.5t42.5 203.5v277q0 40 -41 48l-59 11v16q24 -3 102 -3t103 3v-16l-58 -13q-22 -4 -22 -46
v-303q0 -140 -52 -203t-177 -63q-122 0 -187.5 51t-65.5 147v375q0 24 -5 34.5t-19 12.5l-71 8v16q66 -3 135 -3q99 0 135 3z" />
    <glyph glyph-name="dotlessi" unicode="&#x131;" horiz-adv-x="229" vert-adv-y="1301" 
d="M222 -4q-31 4 -110 4t-110 -4v16l56 11q31 6 31 36v235q0 24 -12 35t-48 19v14q71 18 104 72h16v-378q0 -15 4.5 -22t17.5 -10l51 -12v-16z" />
    <glyph glyph-name="circumflex" unicode="&#x2c6;" horiz-adv-x="333" vert-adv-y="1301" 
d="M72 491l92 159h29l93 -158l-2 -13l-109 107l-103 -110v15z" />
    <glyph glyph-name="tilde" unicode="&#x2dc;" horiz-adv-x="333" vert-adv-y="1301" 
d="M312 604h14q3 -46 -20 -73t-60 -27q-34 0 -75 30q-40 29 -65 29q-36 0 -44 -58h-14q-4 27 15.5 63t64.5 36q19 0 35 -7t42 -24q43 -28 64 -28q36 0 43 59z" />
    <glyph glyph-name="glyph219" horiz-adv-x="333" vert-adv-y="1301" 
d="M48 533v43h261v-43h-261z" />
    <glyph glyph-name="breve" unicode="&#x2d8;" horiz-adv-x="333" vert-adv-y="1301" 
d="M65 602h14q16 -82 105 -82q43 0 71 21.5t34 60.5h16q0 -57 -36.5 -97.5t-85.5 -40.5q-48 0 -83 39t-35 99z" />
    <glyph glyph-name="glyph221" horiz-adv-x="333" vert-adv-y="1301" 
d="M184 516q-17 0 -29.5 12.5t-12.5 29.5t12.5 29.5t29.5 12.5t29.5 -12.5t12.5 -29.5t-12.5 -29.5t-29.5 -12.5z" />
    <glyph glyph-name="ring" unicode="&#x2da;" horiz-adv-x="333" vert-adv-y="1301" 
d="M185 614q33 0 56.5 -23.5t23.5 -56.5t-23.5 -56.5t-56.5 -23.5t-56.5 23.5t-23.5 56.5t23.5 56.5t56.5 23.5zM185 476q24 0 41.5 17t17.5 41t-17.5 41t-41.5 17t-41 -17t-17 -41t17 -41t41 -17z" />
    <glyph glyph-name="cedilla" unicode="&#xb8;" horiz-adv-x="333" vert-adv-y="1301" 
d="M65 -85q30 36 65 92h16l-38 -61q38 -29 38 -69q0 -37 -25 -62t-61 -25q-25 0 -42.5 13t-17.5 28q0 9 5.5 16t13.5 7q11 0 26 -21t31 -21q14 0 24.5 13.5t10.5 31.5q0 39 -46 58z" />
    <glyph glyph-name="hungarumlaut" unicode="&#x2dd;" horiz-adv-x="333" vert-adv-y="1301" 
d="M84 480l70 100q37 52 67 52q11 0 19.5 -7.5t8.5 -17.5q0 -21 -39 -48l-115 -79h-11zM207 480l70 100q37 52 67 52q11 0 19.5 -7.5t8.5 -17.5q0 -21 -39 -48l-115 -79h-11z" />
    <glyph glyph-name="ogonek" unicode="&#x2db;" horiz-adv-x="333" vert-adv-y="1301" 
d="M150 0h27q-12 -24 -12 -44q0 -31 25.5 -55.5t57.5 -24.5q30 0 63 23l11 -10q-50 -50 -107 -50q-39 0 -68 26t-29 60t32 75z" />
    <glyph glyph-name="glyph226" horiz-adv-x="333" vert-adv-y="1301" 
d="M194 476h-29l-93 159l2 12l106 -105l105 105l2 -12z" />
    <glyph glyph-name="glyph227" vert-adv-y="1301" 
 />
    <glyph glyph-name="glyph228" horiz-adv-x="771" vert-adv-y="1301" 
d="M122 303h-109q-3 7 -3 14t3 12h109v223q0 24 -6 34t-23 13l-68 12v16q64 -2 156 3.5t130 5.5q98 0 155 -11t107.5 -40t83 -67.5t50.5 -88.5t18 -106q0 -94 -52 -180.5t-135 -114.5t-161 -28l-162 4h-200v16l78 17q16 3 22.5 13t6.5 38v215zM204 329h180q-3 -7 -3 -12
t3 -14h-180v-191q0 -32 34.5 -59.5t99.5 -27.5q115 0 201.5 75.5t86.5 226.5q0 132 -90 208t-250 76q-54 0 -68 -10.5t-14 -48.5v-223z" />
    <glyph glyph-name="eth" unicode="&#xf0;" horiz-adv-x="521" vert-adv-y="1301" 
d="M316 561q170 -129 170 -328q0 -114 -62 -181t-164 -67q-92 0 -153.5 59t-61.5 146q0 89 61.5 148.5t146.5 59.5q79 0 138 -56q-18 113 -117 192l-133 -88l-16 22l127 83q-46 34 -108 59l14 29q67 -19 134 -61l92 60l14 -22zM401 301q-60 78 -138 78q-68 0 -105 -50.5
t-37 -145.5q0 -85 37 -132t101 -47q72 0 110 53t38 156q0 42 -6 88z" />
    <glyph glyph-name="Lslash" unicode="&#x141;" horiz-adv-x="604" vert-adv-y="1301" 
d="M208 335v-290q0 -13 4.5 -19.5t23.5 -6.5h93q87 0 117 9t61.5 42t54.5 90h16l-29 -164q-82 4 -269 4q-205 0 -270 -4v14l91 13q26 3 26 21v208l-103 -106v39l103 105v277q0 19 -6.5 24.5t-19.5 7.5l-77 13v16q54 -3 206 -3q64 0 90 3v-16l-86 -13q-15 -2 -20.5 -6.5
t-5.5 -25.5v-194l133 136v-37z" />
    <glyph glyph-name="lslash" unicode="&#x142;" horiz-adv-x="313" vert-adv-y="1301" 
d="M191 374l84 87v-32l-84 -87v-288q0 -15 4.5 -21.5t16.5 -8.5l62 -11v-16q-67 3 -120 3q-51 0 -107 -3v16l62 11q21 4 21 30v224l-84 -86v32l84 86v248q0 18 -9.5 26t-53.5 24v11q49 12 103 34h21v-279z" />
    <glyph glyph-name="Scaron" unicode="&#x160;" horiz-adv-x="479" vert-adv-y="1301" 
d="M253 752l106 105l2 -12l-95 -159h-27l-94 159l2 12zM376 477q-29 131 -144 131q-54 0 -90.5 -31t-36.5 -73q0 -33 29.5 -61t122.5 -76q95 -49 137.5 -86t42.5 -110q0 -84 -58.5 -135.5t-163.5 -51.5q-97 0 -177 47l11 149h14q9 -74 60 -121.5t113 -47.5q59 0 99.5 35
t40.5 84q0 44 -32.5 74t-107.5 69q-104 54 -145 98t-41 101q0 71 55 117t143 46t145 -44l-4 -114h-13z" />
    <glyph glyph-name="scaron" unicode="&#x161;" horiz-adv-x="365" vert-adv-y="1301" 
d="M210 477h-29l-93 159l2 12l106 -105l105 105l2 -12zM280 288q-9 34 -40 61t-55 27q-73 0 -73 -67q0 -27 24 -45.5t73 -36.5q113 -43 113 -122q0 -52 -40 -86.5t-99 -34.5q-72 0 -118 26l-10 113h17q14 -53 49 -85.5t75 -32.5q32 0 54 20.5t22 51.5q0 57 -94 92
q-66 25 -94.5 52.5t-28.5 67.5q0 51 38 80.5t102 29.5q57 0 98 -24l6 -87h-19z" />
    <glyph glyph-name="Yacute" unicode="&#xdd;" horiz-adv-x="656" vert-adv-y="1301" 
d="M290 686l70 100q37 52 67 52q11 0 19.5 -7.5t8.5 -17.5q0 -21 -39 -48l-115 -79h-11zM409 26l75 -11v-18q-115 3 -152 3q-84 0 -150 -3v16l75 12q17 3 28 12.5t11 21.5v167q0 23 -18 50l-178 267q-40 60 -64 63l-44 6v16q20 -3 135 -3q93 0 134 3v-16l-63 -9
q-27 -4 -27 -19q0 -5 4 -11l180 -276l172 248q15 22 15 35q0 18 -25 22l-64 10v16q9 -3 106 -3q82 0 105 4v-16l-34 -8q-30 -4 -85 -81l-161 -226q-8 -11 -11 -26t-3 -47v-164q0 -29 39 -35z" />
    <glyph glyph-name="yacute" unicode="&#xfd;" horiz-adv-x="417" vert-adv-y="1301" 
d="M160 480l70 100q37 52 67 52q11 0 19.5 -7.5t8.5 -17.5q0 -21 -39 -48l-115 -79h-11zM3 380q63 -5 100 -5q59 0 101 5v-16l-61 -12q-15 -3 -15 -14q0 -4 3 -13l101 -285l93 258q5 13 5 24q0 24 -18 28l-56 14v16q45 -5 85 -5q35 0 85 5v-16l-32 -9q-14 -4 -24 -16.5
t-24 -50.5l-169 -446q-18 -47 -43 -72t-52 -25q-43 0 -43 32q0 36 37 36q13 0 31 -4q8 -2 13 -2q8 0 13 5.5t22 35t30 64.5t13 47q0 17 -10 43l-122 323q-8 23 -26 28l-37 11v16z" />
    <glyph glyph-name="Euro" unicode="&#x20ac;" horiz-adv-x="712" vert-adv-y="1301" 
d="M213 252q21 -246 242 -246q139 0 204 132h13q-11 -61 -31 -129q-64 -25 -186 -25q-140 0 -230.5 70.5t-107.5 196.5h-62l10 41l49 1q0 26 1 37l-60 -1l10 41l57 1q28 119 116.5 191.5t197.5 72.5q88 0 131 -8t83 -33q6 -48 5 -99h-19q-20 58 -67.5 88.5t-114.5 30.5
q-89 0 -154.5 -64.5t-83.5 -177.5l408 7l-12 -43l-400 -5q-1 -11 -1 -37l389 5l-12 -43z" />
    <glyph glyph-name="glyph237" vert-adv-y="1301" 
 />
    <glyph glyph-name="Thorn" unicode="&#xde;" horiz-adv-x="563" vert-adv-y="1301" 
d="M207 480q46 10 103 10q131 0 178.5 -57.5t47.5 -124.5q0 -78 -55.5 -133.5t-132.5 -55.5q-69 0 -141 42v-88q0 -26 9.5 -34.5t37.5 -12.5l59 -9v-20q-52 3 -147 3q-60 0 -126 -3v20l55 10q21 4 27 11.5t6 31.5v489q0 18 -7 27t-24 11l-74 10v21q41 -3 137 -3q79 0 144 3
v-21l-59 -9q-26 -4 -32 -12.5t-6 -28.5v-77zM207 183q59 -29 99 -29q63 0 103 42t40 105q0 69 -48 114.5t-124 45.5q-42 0 -70 -6v-272z" />
    <glyph glyph-name="thorn" unicode="&#xfe;" horiz-adv-x="510" vert-adv-y="1301" 
d="M140 25v-222q0 -18 9.5 -23.5t24.5 -8.5l60 -12v-17q-15 3 -157 3q-39 0 -65 -3v18l40 8q16 3 21.5 10.5t5.5 23.5v733q0 30 -11.5 42t-49.5 22v11q36 5 98 39h24v-310q76 53 155 53q77 0 128 -54t51 -136q0 -91 -60 -150t-152 -59q-49 0 -122 32zM140 303v-217
q14 -34 41 -51.5t79 -17.5q62 0 103.5 43t41.5 108q0 80 -44 128t-117 48q-61 0 -104 -41z" />
    <glyph glyph-name="glyph240" vert-adv-y="1301" 
 />
    <glyph glyph-name="Zcaron" unicode="&#x17d;" horiz-adv-x="656" vert-adv-y="1301" 
d="M360 686h-34l-93 159l2 12l108 -107l108 107l2 -12zM609 176l-4 -179q-141 3 -228 3q-213 0 -339 -4v10l444 595l-275 -5q-40 -2 -60.5 -9t-40 -28.5t-53.5 -72.5h-10l59 183h17q-4 -15 -4 -23q0 -18 21 -22.5t89 -3.5l357 5v-20l-437 -580h191q109 0 155.5 9t70.5 47.5
t31 94.5h16z" />
    <glyph glyph-name="zcaron" unicode="&#x17e;" horiz-adv-x="427" vert-adv-y="1301" 
d="M244 477h-34l-93 159l2 12l108 -107l108 107l2 -12zM390 122l-22 -125q-90 3 -171 3q-119 0 -172 -3v14l286 346l-138 -4q-42 -1 -66.5 -16t-53.5 -61h-12l50 154h19q-5 -17 -5 -28q0 -14 10 -20t49 -5l224 4v-21l-269 -336h75q70 0 98 5t45 24t36 69h17z" />
    <glyph glyph-name="glyph243" vert-adv-y="1301" 
 />
    <glyph glyph-name="glyph244" vert-adv-y="1301" 
 />
    <glyph glyph-name="glyph245" vert-adv-y="1301" 
 />
    <glyph glyph-name="glyph246" vert-adv-y="1301" 
 />
    <glyph glyph-name="glyph247" vert-adv-y="1301" 
 />
    <glyph glyph-name="onehalf" unicode="&#xbd;" horiz-adv-x="813" vert-adv-y="1301" 
d="M163 -33l419 669h36l-423 -669h-32zM231 303q-32 6 -73 6q-31 0 -70 -6v17l23 6q14 3 18.5 7t4.5 15v236l-68 -39l-10 14q39 26 102 76h26v-286q0 -11 3 -15.5t15 -6.5l29 -6v-18zM767 -3q-48 3 -117 3q-59 0 -132 -3l7 19q39 39 79 74q53 46 77.5 79.5t24.5 64.5
q0 24 -19 42t-45 18q-30 0 -53 -18.5t-32 -52.5l-22 6q8 45 39.5 71.5t78.5 26.5q46 0 77.5 -26t31.5 -61q0 -49 -64 -102q-98 -82 -120 -105h129q22 0 28.5 5.5t17.5 31.5h24z" />
    <glyph glyph-name="onequarter" unicode="&#xbc;" horiz-adv-x="813" vert-adv-y="1301" 
d="M163 -33l419 669h36l-423 -669h-32zM231 303q-32 6 -73 6q-31 0 -70 -6v17l23 6q14 3 18.5 7t4.5 15v236l-68 -39l-10 14q39 26 102 76h26v-286q0 -11 3 -15.5t15 -6.5l29 -6v-18zM723 122h62v-30h-62v-92h-51v92h-135q-18 0 -18 12q0 9 9 19l171 211h24v-212zM672 122
v141l-110 -141h110z" />
    <glyph glyph-name="uni00B9" unicode="&#xb9;" horiz-adv-x="313" vert-adv-y="1301" 
d="M163 -33l419 669h36l-423 -669h-32zM231 303q-32 6 -73 6q-31 0 -70 -6v17l23 6q14 3 18.5 7t4.5 15v236l-68 -39l-10 14q39 26 102 76h26v-286q0 -11 3 -15.5t15 -6.5l29 -6v-18z" />
    <glyph glyph-name="threequarters" unicode="&#xbe;" horiz-adv-x="823" vert-adv-y="1301" 
d="M163 -33l419 669h36l-423 -669h-32zM70 553l-18 8q32 74 108 74q36 0 59.5 -17.5t23.5 -38.5q0 -34 -57 -75q43 -5 65.5 -28t22.5 -60q0 -50 -42 -85t-108 -35q-44 0 -66.5 9.5t-22.5 20.5q0 6 6 12t17 6q12 0 26 -9q35 -22 54 -22q33 0 59 27t26 62q0 30 -17 51t-43 21
q-20 0 -46 -20l-12 16q47 30 69 50.5t22 38.5q0 19 -14 31t-38 12q-41 0 -74 -49zM723 122h62v-30h-62v-92h-51v92h-135q-18 0 -18 12q0 9 9 19l171 211h24v-212zM672 122v141l-110 -141h110z" />
    <glyph glyph-name="uni00B3" unicode="&#xb3;" horiz-adv-x="313" vert-adv-y="1301" 
d="M70 553l-18 8q32 74 108 74q36 0 59.5 -17.5t23.5 -38.5q0 -34 -57 -75q43 -5 65.5 -28t22.5 -60q0 -50 -42 -85t-108 -35q-44 0 -66.5 9.5t-22.5 20.5q0 6 6 12t17 6q12 0 26 -9q35 -22 54 -22q33 0 59 27t26 62q0 30 -17 51t-43 21q-20 0 -46 -20l-12 16q47 30 69 50.5
t22 38.5q0 19 -14 31t-38 12q-41 0 -74 -49z" />
    <glyph glyph-name="uni00B2" unicode="&#xb2;" horiz-adv-x="313" vert-adv-y="1301" 
d="M275 305q-52 3 -121 3q-37 0 -128 -4l7 20q39 39 79 74q53 46 77.5 79.5t24.5 64.5q0 24 -19 42t-45 18q-30 0 -53 -18.5t-32 -52.5l-22 6q8 45 39.5 71.5t78.5 26.5q46 0 77.5 -26t31.5 -61q0 -49 -64 -102q-98 -82 -120 -105h129q22 0 28.5 5.5t17.5 31.5h24z" />
    <glyph glyph-name="brokenbar" unicode="&#xa6;" horiz-adv-x="500" vert-adv-y="1301" 
d="M229 654h43v-353h-43v353zM229 94h43v-352h-43v352z" />
    <glyph glyph-name="minus" unicode="&#x2212;" horiz-adv-x="667" vert-adv-y="1301" 
d="M71 333h525v-43h-525v43z" />
    <glyph glyph-name="glyph256" horiz-adv-x="667" vert-adv-y="1301" 
d="M96 518l30 30l208 -208l208 208l30 -30l-208 -208l206 -206l-30 -30l-206 206l-207 -206l-30 30l206 206z" />
    <glyph glyph-name="glyph257" vert-adv-y="1301" 
 />
    <glyph glyph-name="glyph258" vert-adv-y="1301" 
 />
    <glyph glyph-name="mu" unicode="&#x3bc;" horiz-adv-x="500" vert-adv-y="1301" 
d="M85 28q0 -73 20 -145q7 -27 7 -47q0 -26 -10.5 -39.5t-28.5 -13.5q-40 0 -40 50q0 21 8 50q20 72 20 145v353h66v-233q0 -57 19 -83.5t63 -26.5q27 0 53 14t70 56v273h65v-245q0 -52 8.5 -78.5t32.5 -26.5q21 0 30.5 18t15.5 48h21q-4 -56 -28.5 -84.5t-65.5 -28.5
q-69 0 -79 95q-85 -95 -157 -95q-62 0 -90 62v-18z" />
    <glyph glyph-name="Omega" unicode="&#x3a9;" horiz-adv-x="740" vert-adv-y="1301" 
d="M257 124q-98 20 -155 93.5t-57 171.5q0 123 91 205.5t234 82.5q145 0 234.5 -81.5t89.5 -206.5q0 -98 -57 -171.5t-155 -93.5v-33h132q45 0 61.5 14t18.5 48h17v-153h-273l11 147q125 45 125 240q0 112 -59 183t-146 71t-145.5 -71t-58.5 -183q0 -195 125 -240l11 -147
h-273v153h17q2 -34 18.5 -48t61.5 -14h132v33z" />
    <glyph glyph-name="Gbreve" unicode="&#x11e;" horiz-adv-x="771" vert-adv-y="1301" 
d="M523 824q0 -56 -34.5 -96.5t-85.5 -40.5q-48 0 -83.5 41t-35.5 96h13q17 -82 107 -82q89 0 106 82h13zM757 261l-65 -7q-17 -2 -23.5 -8t-6.5 -20v-111q0 -35 -2 -48t-9.5 -23.5t-47 -26t-91.5 -24.5t-108 -9q-164 0 -261 87t-97 227q0 149 107.5 243t276.5 94
q133 0 222 -48l8 -120l-14 -3q-62 149 -200 149q-141 0 -221 -82t-80 -221q0 -121 82.5 -211.5t202.5 -90.5q150 0 150 107v111q0 15 -7.5 21t-23.5 7l-96 7v18q77 -4 127 -4q99 0 177 4v-18z" />
    <glyph glyph-name="gbreve" unicode="&#x11f;" horiz-adv-x="448" vert-adv-y="1301" 
d="M381 602q0 -56 -34.5 -96.5t-85.5 -40.5q-48 0 -83.5 41t-35.5 96h13q17 -82 107 -82q89 0 106 82h13zM164 -38q-44 17 -69 40t-25 43q0 16 10.5 25t38.5 17q25 8 53 20q-48 27 -70.5 59.5t-22.5 77.5q0 65 46.5 110t117.5 45q32 0 55 -7.5t52 -25.5q25 -16 40 -16
q12 0 41 4q26 3 36 3q17 0 21.5 -7t4.5 -29q0 -15 -17 -15q-12 0 -44 8q-40 10 -48 7q21 -42 21 -75q0 -50 -42.5 -99t-134.5 -49q-39 0 -70 -15t-31 -29q0 -17 55 -34t139 -20q72 -2 112 -31.5t40 -74.5q0 -38 -27.5 -74.5t-86.5 -58t-127 -21.5q-83 0 -138.5 32.5
t-55.5 72.5q0 63 126 117zM239 382q-95 0 -95 -136q0 -61 27 -96t69 -35q45 0 72 34t27 96q0 63 -28 100t-72 37zM97 -145q0 -39 39 -67t104 -28q83 0 136 31t53 77q0 48 -50 65.5t-147 17.5q-69 0 -102 -31t-33 -65z" />
    <glyph glyph-name="Idotaccent" unicode="&#x130;" horiz-adv-x="354" vert-adv-y="1301" 
d="M192 810q17 0 30 -13t13 -30t-13 -29.5t-30 -12.5t-30 12.5t-13 29.5t13 30t30 13zM139 54v517q0 17 -5.5 24t-19.5 8l-88 9v16q11 -3 210 -3q59 0 94 3v-17l-88 -9q-14 -1 -19.5 -7t-5.5 -24v-517q0 -17 5 -22.5t20 -6.5l88 -5v-24q-40 4 -152 4t-152 -4v24l88 5
q15 2 20 7t5 22z" />
    <glyph glyph-name="Scedilla" unicode="&#x15e;" horiz-adv-x="479" vert-adv-y="1301" 
d="M237 -15q-7 -1 -22 -1q-97 0 -177 47l11 149h14q9 -74 60 -121.5t113 -47.5q59 0 99.5 35t40.5 84q0 44 -32.5 74t-107.5 69q-104 54 -145 98t-41 101q0 71 55 117t143 46t145 -44l-4 -114h-13q-29 131 -144 131q-54 0 -90.5 -31t-36.5 -73q0 -33 29.5 -61t122.5 -76
q95 -49 137.5 -86t42.5 -110q0 -75 -47 -124.5t-135 -60.5l-25 -40q38 -30 38 -69q0 -38 -25 -62.5t-61 -24.5q-26 0 -43 13.5t-17 29.5q0 8 6 14.5t12 6.5q11 0 27 -21t33 -21q13 0 22.5 14t9.5 31q0 39 -45 58q32 39 50 70z" />
    <glyph glyph-name="scedilla" unicode="&#x15f;" horiz-adv-x="365" vert-adv-y="1301" 
d="M179 -16q-74 2 -114 26l-10 113h17q14 -53 49 -85.5t75 -32.5q32 0 54 20.5t22 51.5q0 57 -94 92q-66 25 -94.5 52.5t-28.5 67.5q0 51 38 80.5t102 29.5q57 0 98 -24l6 -87h-19q-9 34 -40 61t-55 27q-73 0 -73 -67q0 -27 24 -45.5t73 -36.5q113 -43 113 -122
q0 -48 -34 -81.5t-91 -38.5l-25 -39q38 -30 38 -69q0 -38 -25 -62.5t-61 -24.5q-26 0 -43 13.5t-17 29.5q0 8 6 14.5t12 6.5q11 0 27 -21t33 -21q13 0 22.5 14t9.5 31q0 39 -45 58q24 30 50 69z" />
    <glyph glyph-name="Cacute" unicode="&#x106;" horiz-adv-x="635" vert-adv-y="1301" 
d="M319 687l60 87q43 63 77 63q12 0 20.5 -7.5t8.5 -16.5q0 -23 -72 -71l-90 -60zM601 138q-11 -61 -31 -129q-64 -25 -186 -25q-157 0 -249 86.5t-92 228.5q0 87 43.5 166t118 124.5t160.5 45.5q88 0 131 -8t83 -33q6 -48 5 -99h-19q-20 58 -67.5 88.5t-114.5 30.5
q-105 0 -174 -86.5t-69 -223.5q0 -148 61.5 -223t182.5 -75q139 0 204 132h13z" />
    <glyph glyph-name="cacute" unicode="&#x107;" horiz-adv-x="417" vert-adv-y="1301" 
d="M181 481l60 87q43 63 77 63q12 0 20.5 -7.5t8.5 -16.5q0 -23 -72 -71l-90 -60zM390 89l1 -31q-37 -39 -74 -56.5t-89 -17.5q-78 0 -130.5 61t-52.5 152q0 99 55 150.5t161 51.5q55 0 89.5 -16t34.5 -43q0 -14 -9.5 -25t-25.5 -11q-26 0 -56 30q-33 33 -69 33
q-43 0 -75.5 -46.5t-32.5 -116.5q0 -80 42 -127t99 -47q65 0 132 59z" />
    <glyph glyph-name="Ccaron" unicode="&#x10c;" horiz-adv-x="635" vert-adv-y="1301" 
d="M374 749l107 111v-15l-93 -158h-28l-93 158v15zM601 138q-11 -61 -31 -129q-64 -25 -186 -25q-157 0 -249 86.5t-92 228.5q0 87 43.5 166t118 124.5t160.5 45.5q88 0 131 -8t83 -33q6 -48 5 -99h-19q-20 58 -67.5 88.5t-114.5 30.5q-105 0 -174 -86.5t-69 -223.5
q0 -148 61.5 -223t182.5 -75q139 0 204 132h13z" />
    <glyph glyph-name="ccaron" unicode="&#x10d;" horiz-adv-x="417" vert-adv-y="1301" 
d="M251 539l107 111v-15l-93 -158h-28l-93 158v15zM390 89l1 -31q-37 -39 -74 -56.5t-89 -17.5q-78 0 -130.5 61t-52.5 152q0 99 55 150.5t161 51.5q55 0 89.5 -16t34.5 -43q0 -14 -9.5 -25t-25.5 -11q-26 0 -56 30q-33 33 -69 33q-43 0 -75.5 -46.5t-32.5 -116.5
q0 -80 42 -127t99 -47q65 0 132 59z" />
    <glyph glyph-name="dcroat" unicode="&#x111;" horiz-adv-x="500" vert-adv-y="1301" 
d="M357 480h-167v27h167v38q0 38 -12.5 50.5t-65.5 25.5v16q64 5 116 23h25v-153h87v-27h-87v-412q0 -34 10.5 -41.5t57.5 -8.5v-16q-75 -17 -131 -23v46q-52 -21 -87 -31t-76 -10q-65 0 -113 57t-48 133q0 93 58.5 159t136.5 66t129 -27v108zM357 50v227q0 46 -32 72.5
t-87 26.5q-58 0 -96 -52t-38 -136q0 -74 42 -120.5t105 -46.5q31 0 61 8.5t45 20.5z" />
    <glyph glyph-name="uni00AD" unicode="&#xad;" horiz-adv-x="313" vert-adv-y="1301" 
d="M37 216h238v-42h-238v42z" />
    <glyph glyph-name="macron" unicode="&#xaf;" horiz-adv-x="500" vert-adv-y="1301" 
d="M-2 793h502v-50h-502v50z" />
    <glyph glyph-name="glyph273" horiz-adv-x="333" vert-adv-y="1301" 
d="M257 345q0 22 16 38t38 16t38 -16t16 -38t-16 -38t-38 -16t-38 16t-16 38z" />
    <glyph glyph-name="glyph274" horiz-adv-x="313" vert-adv-y="1301" 
d="M208 635h22v-212h62v-30h-62v-96h-51v96h-151v21q104 131 180 221zM179 423v139q-66 -82 -108 -139h108z" />
    <glyph glyph-name="Amacron" unicode="&#x100;" horiz-adv-x="677" vert-adv-y="1301" 
d="M466 732h-262v44h262v-44zM224 284l-80 -232q-3 -10 -3 -16q0 -8 6 -12t25 -5l70 -5v-16q-19 2 -123 2t-123 -2v16l63 5q33 3 46 37l224 604h29l221 -597q7 -17 13 -23t22 -11l55 -17v-15q-51 3 -131 3t-131 -3v15l66 10q19 3 26.5 7t7.5 12q0 6 -5 20l-81 223h-197z
M413 306l-93 258l-88 -258h181z" />
    <glyph glyph-name="glyph276" horiz-adv-x="406" vert-adv-y="1301" 
d="M350 534h-262v44h262v-44zM399 63l13 -7q-29 -72 -80 -72q-31 0 -48.5 17.5t-17.5 50.5q-55 -42 -81.5 -55t-66.5 -13q-65 0 -65 53q0 47 57.5 100t157.5 90v68q0 32 -18 52.5t-48 20.5q-35 0 -60 -23.5t-30 -65.5q-2 -17 -16.5 -29t-30.5 -12q-7 0 -14.5 3.5t-7.5 11.5
q0 14 26 57t65 66t76 23q62 0 90 -24.5t28 -78.5v-203q0 -23 1.5 -35.5t10.5 -19t18 -6.5q22 0 41 31zM268 102v103q-64 -25 -105 -66t-41 -75q0 -19 12.5 -31.5t31.5 -12.5q27 0 64.5 27.5t37.5 54.5z" />
    <glyph glyph-name="Abreve" unicode="&#x102;" horiz-adv-x="677" vert-adv-y="1301" 
d="M465 829q0 -56 -34.5 -96.5t-85.5 -40.5q-48 0 -83.5 41t-35.5 96h13q17 -82 107 -82q89 0 106 82h13zM224 284l-80 -232q-3 -10 -3 -16q0 -8 6 -12t25 -5l70 -5v-16q-19 2 -123 2t-123 -2v16l63 5q33 3 46 37l224 604h29l221 -597q7 -17 13 -23t22 -11l55 -17v-15
q-51 3 -131 3t-131 -3v15l66 10q19 3 26.5 7t7.5 12q0 6 -5 20l-81 223h-197zM413 306l-93 258l-88 -258h181z" />
    <glyph glyph-name="abreve" unicode="&#x103;" horiz-adv-x="406" vert-adv-y="1301" 
d="M351 601q0 -56 -34.5 -96.5t-85.5 -40.5q-48 0 -83.5 41t-35.5 96h13q17 -82 107 -82q89 0 106 82h13zM399 63l13 -7q-29 -72 -80 -72q-31 0 -48.5 17.5t-17.5 50.5q-55 -42 -81.5 -55t-66.5 -13q-65 0 -65 53q0 47 57.5 100t157.5 90v68q0 32 -18 52.5t-48 20.5
q-35 0 -60 -23.5t-30 -65.5q-2 -17 -16.5 -29t-30.5 -12q-7 0 -14.5 3.5t-7.5 11.5q0 14 26 57t65 66t76 23q62 0 90 -24.5t28 -78.5v-203q0 -23 1.5 -35.5t10.5 -19t18 -6.5q22 0 41 31zM268 102v103q-64 -25 -105 -66t-41 -75q0 -19 12.5 -31.5t31.5 -12.5q27 0 64.5 27.5
t37.5 54.5z" />
    <glyph glyph-name="Aogonek" unicode="&#x104;" horiz-adv-x="667" vert-adv-y="1301" 
d="M576 0q-14 -22 -14 -45q0 -32 29 -55.5t57 -23.5t61 23l11 -10q-47 -49 -105 -49q-40 0 -69 25t-29 60t31 75h-10q-80 0 -131 -3v15l66 10q19 3 26.5 7t7.5 12q0 6 -5 20l-81 223h-197l-80 -232q-3 -10 -3 -16q0 -8 6 -12t25 -5l70 -5v-16q-19 2 -123 2t-123 -2v16l63 5
q33 3 46 37l224 604h29l221 -597q7 -17 13 -23t22 -11l55 -17v-15q-42 3 -93 3zM413 306l-93 258l-88 -258h181z" />
    <glyph glyph-name="aogonek" unicode="&#x105;" horiz-adv-x="406" vert-adv-y="1301" 
d="M328 -16q-4 -14 -4 -27q0 -33 27.5 -57t56.5 -24t62 23l12 -10q-46 -49 -105 -49q-42 0 -70.5 25t-28.5 60q0 31 23 64q-35 15 -35 63q-55 -42 -81.5 -55t-66.5 -13q-65 0 -65 53q0 47 57.5 100t157.5 90v68q0 32 -18 52.5t-48 20.5q-35 0 -60 -23.5t-30 -65.5
q-2 -17 -16.5 -29t-30.5 -12q-7 0 -14.5 3.5t-7.5 11.5q0 14 26 57t65 66t76 23q62 0 90 -24.5t28 -78.5v-203q0 -23 1.5 -35.5t10.5 -19t18 -6.5q22 0 41 31l13 -7q-28 -68 -84 -72zM268 102v103q-64 -25 -105 -66t-41 -75q0 -19 12.5 -31.5t31.5 -12.5q27 0 64.5 27.5
t37.5 54.5z" />
    <glyph glyph-name="Ccircumflex" unicode="&#x108;" horiz-adv-x="635" vert-adv-y="1301" 
d="M501 686l-107 111l-107 -111v15l93 158h28l93 -158v-15zM601 138q-11 -61 -31 -129q-64 -25 -186 -25q-157 0 -249 86.5t-92 228.5q0 87 43.5 166t118 124.5t160.5 45.5q88 0 131 -8t83 -33q6 -48 5 -99h-19q-20 58 -67.5 88.5t-114.5 30.5q-105 0 -174 -86.5t-69 -223.5
q0 -148 61.5 -223t182.5 -75q139 0 204 132h13z" />
    <glyph glyph-name="ccircumflex" unicode="&#x109;" horiz-adv-x="417" vert-adv-y="1301" 
d="M348 477l-107 111l-107 -111v15l93 158h28l93 -158v-15zM390 89l1 -31q-37 -39 -74 -56.5t-89 -17.5q-78 0 -130.5 61t-52.5 152q0 99 55 150.5t161 51.5q55 0 89.5 -16t34.5 -43q0 -14 -9.5 -25t-25.5 -11q-26 0 -56 30q-33 33 -69 33q-43 0 -75.5 -46.5t-32.5 -116.5
q0 -80 42 -127t99 -47q65 0 132 59z" />
    <glyph glyph-name="Cdotaccent" unicode="&#x10a;" horiz-adv-x="635" vert-adv-y="1301" 
d="M352 726q0 17 12.5 29.5t29.5 12.5t29.5 -12.5t12.5 -29.5t-12.5 -29.5t-29.5 -12.5t-29.5 12.5t-12.5 29.5zM601 138q-11 -61 -31 -129q-64 -25 -186 -25q-157 0 -249 86.5t-92 228.5q0 87 43.5 166t118 124.5t160.5 45.5q88 0 131 -8t83 -33q6 -48 5 -99h-19
q-20 58 -67.5 88.5t-114.5 30.5q-105 0 -174 -86.5t-69 -223.5q0 -148 61.5 -223t182.5 -75q139 0 204 132h13z" />
    <glyph glyph-name="cdotaccent" unicode="&#x10b;" horiz-adv-x="417" vert-adv-y="1301" 
d="M203 558q0 17 12.5 29.5t29.5 12.5t29.5 -12.5t12.5 -29.5t-12.5 -29.5t-29.5 -12.5t-29.5 12.5t-12.5 29.5zM390 89l1 -31q-37 -39 -74 -56.5t-89 -17.5q-78 0 -130.5 61t-52.5 152q0 99 55 150.5t161 51.5q55 0 89.5 -16t34.5 -43q0 -14 -9.5 -25t-25.5 -11
q-26 0 -56 30q-33 33 -69 33q-43 0 -75.5 -46.5t-32.5 -116.5q0 -80 42 -127t99 -47q65 0 132 59z" />
    <glyph glyph-name="Dcaron" unicode="&#x10e;" horiz-adv-x="771" vert-adv-y="1301" 
d="M340 752l107 111v-15l-93 -158h-28l-93 158v15zM119 551q0 24 -6 34t-23 13l-68 12v16q64 -2 156 3.5t130 5.5q98 0 155 -11t107.5 -40t83 -67.5t50.5 -88.5t18 -106q0 -94 -52 -180.5t-135 -114.5t-161 -28l-162 4h-200v16l78 17q16 3 22.5 13t6.5 38v464zM201 111
q0 -32 34.5 -59.5t99.5 -27.5q115 0 201.5 75.5t86.5 226.5q0 132 -90 208t-250 76q-54 0 -68 -10.5t-14 -48.5v-440z" />
    <glyph glyph-name="dcaron" unicode="&#x10f;" horiz-adv-x="646" vert-adv-y="1301" 
d="M475 418v22q42 17 67 48.5t25 54.5q0 34 -33 34l-20 -1q-14 0 -25.5 12t-11.5 27q0 18 16 31.5t35 13.5q36 0 63 -25.5t27 -61.5q0 -50 -44.5 -98t-98.5 -57zM357 545q0 38 -12.5 50.5t-65.5 25.5v16q64 5 116 23h25v-592q0 -34 10.5 -41.5t57.5 -8.5v-16
q-75 -17 -131 -23v46q-52 -21 -87 -31t-76 -10q-65 0 -113 57t-48 133q0 93 58.5 159t136.5 66t129 -27v173zM357 50v227q0 46 -32 72.5t-87 26.5q-58 0 -96 -52t-38 -136q0 -74 42 -120.5t105 -46.5q31 0 61 8.5t45 20.5z" />
    <glyph glyph-name="Eth" unicode="&#xd0;" horiz-adv-x="771" vert-adv-y="1301" 
d="M122 302h-109q-3 7 -3 14t3 12h109v223q0 24 -6 34t-23 13l-68 12v16q64 -2 156 3.5t130 5.5q98 0 155 -11t107.5 -40t83 -67.5t50.5 -88.5t18 -106q0 -94 -52 -180.5t-135 -114.5t-161 -28l-162 4h-200v16l78 17q16 3 22.5 13t6.5 38v215zM204 328h180q-3 -7 -3 -12
t3 -14h-180v-191q0 -32 34.5 -59.5t99.5 -27.5q115 0 201.5 75.5t86.5 226.5q0 132 -90 208t-250 76q-54 0 -68 -10.5t-14 -48.5v-223z" />
    <glyph glyph-name="Eth" unicode="&#x110;" horiz-adv-x="771" vert-adv-y="1301" 
d="M122 302h-109q-3 7 -3 14t3 12h109v223q0 24 -6 34t-23 13l-68 12v16q64 -2 156 3.5t130 5.5q98 0 155 -11t107.5 -40t83 -67.5t50.5 -88.5t18 -106q0 -94 -52 -180.5t-135 -114.5t-161 -28l-162 4h-200v16l78 17q16 3 22.5 13t6.5 38v215zM204 328h180q-3 -7 -3 -12
t3 -14h-180v-191q0 -32 34.5 -59.5t99.5 -27.5q115 0 201.5 75.5t86.5 226.5q0 132 -90 208t-250 76q-54 0 -68 -10.5t-14 -48.5v-223z" />
    <glyph glyph-name="Emacron" unicode="&#x112;" horiz-adv-x="656" vert-adv-y="1301" 
d="M466 732h-262v44h262v-44zM633 162q-22 -92 -25 -165q-124 3 -292 3t-292 -3v17l72 5q17 1 23.5 7t6.5 28v503q0 24 -5.5 34.5t-19.5 11.5l-73 7v18q81 -3 269 -3q190 0 269 3q-3 -31 -3 -74q0 -33 2 -65h-13q-22 55 -34 78.5t-22 30.5t-27 7h-232q-17 0 -23 -9.5
t-6 -32.5v-230h225q17 0 25 5.5t12 24.5l13 70h20q-3 -59 -3 -120q0 -60 3 -120h-12l-22 78q-7 22 -20 30.5t-39 8.5h-202v-249q0 -22 8 -30.5t34 -8.5h222q30 0 50.5 9.5t42 39.5t48.5 91h20z" />
    <glyph glyph-name="glyph289" horiz-adv-x="417" vert-adv-y="1301" 
d="M358 534h-262v44h262v-44zM387 251h-279q-3 -20 -3 -40q0 -78 42.5 -127t115.5 -49q35 0 64 14t63 46l4 -24q-70 -87 -181 -87q-73 0 -122 59t-49 143q0 92 54.5 152.5t138.5 60.5q64 0 106.5 -40.5t45.5 -107.5zM113 272h182q27 0 27 21t-20 52t-71 31q-44 0 -76 -28.5
t-42 -75.5z" />
    <glyph glyph-name="Ebreve" unicode="&#x114;" horiz-adv-x="656" vert-adv-y="1301" 
d="M456 828q0 -56 -34.5 -96.5t-85.5 -40.5q-48 0 -83.5 41t-35.5 96h13q17 -82 107 -82q89 0 106 82h13zM633 162q-22 -92 -25 -165q-124 3 -292 3t-292 -3v17l72 5q17 1 23.5 7t6.5 28v503q0 24 -5.5 34.5t-19.5 11.5l-73 7v18q81 -3 269 -3q190 0 269 3q-3 -31 -3 -74
q0 -33 2 -65h-13q-22 55 -34 78.5t-22 30.5t-27 7h-232q-17 0 -23 -9.5t-6 -32.5v-230h225q17 0 25 5.5t12 24.5l13 70h20q-3 -59 -3 -120q0 -60 3 -120h-12l-22 78q-7 22 -20 30.5t-39 8.5h-202v-249q0 -22 8 -30.5t34 -8.5h222q30 0 50.5 9.5t42 39.5t48.5 91h20z" />
    <glyph glyph-name="ebreve" unicode="&#x115;" horiz-adv-x="417" vert-adv-y="1301" 
d="M349 602q0 -56 -34.5 -96.5t-85.5 -40.5q-48 0 -83.5 41t-35.5 96h13q17 -82 107 -82q89 0 106 82h13zM387 251h-279q-3 -20 -3 -40q0 -78 42.5 -127t115.5 -49q35 0 64 14t63 46l4 -24q-70 -87 -181 -87q-73 0 -122 59t-49 143q0 92 54.5 152.5t138.5 60.5
q64 0 106.5 -40.5t45.5 -107.5zM113 272h182q27 0 27 21t-20 52t-71 31q-44 0 -76 -28.5t-42 -75.5z" />
    <glyph glyph-name="Edotaccent" unicode="&#x116;" horiz-adv-x="656" vert-adv-y="1301" 
d="M306 726q0 17 12.5 29.5t29.5 12.5t29.5 -12.5t12.5 -29.5t-12.5 -29.5t-29.5 -12.5t-29.5 12.5t-12.5 29.5zM633 162q-22 -92 -25 -165q-124 3 -292 3t-292 -3v17l72 5q17 1 23.5 7t6.5 28v503q0 24 -5.5 34.5t-19.5 11.5l-73 7v18q81 -3 269 -3q190 0 269 3
q-3 -31 -3 -74q0 -33 2 -65h-13q-22 55 -34 78.5t-22 30.5t-27 7h-232q-17 0 -23 -9.5t-6 -32.5v-230h225q17 0 25 5.5t12 24.5l13 70h20q-3 -59 -3 -120q0 -60 3 -120h-12l-22 78q-7 22 -20 30.5t-39 8.5h-202v-249q0 -22 8 -30.5t34 -8.5h222q30 0 50.5 9.5t42 39.5
t48.5 91h20z" />
    <glyph glyph-name="edotaccent" unicode="&#x117;" horiz-adv-x="417" vert-adv-y="1301" 
d="M191 558q0 17 12.5 29.5t29.5 12.5t29.5 -12.5t12.5 -29.5t-12.5 -29.5t-29.5 -12.5t-29.5 12.5t-12.5 29.5zM387 251h-279q-3 -20 -3 -40q0 -78 42.5 -127t115.5 -49q35 0 64 14t63 46l4 -24q-70 -87 -181 -87q-73 0 -122 59t-49 143q0 92 54.5 152.5t138.5 60.5
q64 0 106.5 -40.5t45.5 -107.5zM113 272h182q27 0 27 21t-20 52t-71 31q-44 0 -76 -28.5t-42 -75.5z" />
    <glyph glyph-name="Eogonek" unicode="&#x118;" horiz-adv-x="656" vert-adv-y="1301" 
d="M430 0q-14 -22 -14 -45q0 -32 29 -55.5t57 -23.5t61 23l11 -10q-47 -49 -105 -49q-42 0 -70.5 25.5t-28.5 61.5q0 35 30 73h-84q-168 0 -292 -3v17l72 5q17 1 23.5 7t6.5 28v503q0 24 -5.5 34.5t-19.5 11.5l-73 7v18q81 -3 269 -3q190 0 269 3q-3 -31 -3 -74q0 -33 2 -65
h-13q-22 55 -34 78.5t-22 30.5t-27 7h-232q-17 0 -23 -9.5t-6 -32.5v-230h225q17 0 25 5.5t12 24.5l13 70h20q-3 -59 -3 -120q0 -60 3 -120h-12l-22 78q-7 22 -20 30.5t-39 8.5h-202v-249q0 -22 8 -30.5t34 -8.5h222q30 0 50.5 9.5t42 39.5t48.5 91h20q-22 -92 -25 -165z
" />
    <glyph glyph-name="eogonek" unicode="&#x119;" horiz-adv-x="417" vert-adv-y="1301" 
d="M213 -16q-6 -13 -6 -28q0 -34 29.5 -57t56.5 -23q28 0 61 23l11 -10q-47 -49 -105 -49q-40 0 -68.5 24.5t-28.5 59.5q0 30 21 63q-65 13 -103.5 70t-38.5 129q0 92 54.5 152.5t138.5 60.5q64 0 106.5 -40.5t45.5 -107.5h-279q-3 -20 -3 -40q0 -78 42.5 -127t115.5 -49
q35 0 64 14t63 46l4 -24q-70 -87 -181 -87zM113 272h182q27 0 27 21t-20 52t-71 31q-44 0 -76 -28.5t-42 -75.5z" />
    <glyph glyph-name="Ecaron" unicode="&#x11a;" horiz-adv-x="656" vert-adv-y="1301" 
d="M343 752l107 111v-15l-93 -158h-28l-93 158v15zM633 162q-22 -92 -25 -165q-124 3 -292 3t-292 -3v17l72 5q17 1 23.5 7t6.5 28v503q0 24 -5.5 34.5t-19.5 11.5l-73 7v18q81 -3 269 -3q190 0 269 3q-3 -31 -3 -74q0 -33 2 -65h-13q-22 55 -34 78.5t-22 30.5t-27 7h-232
q-17 0 -23 -9.5t-6 -32.5v-230h225q17 0 25 5.5t12 24.5l13 70h20q-3 -59 -3 -120q0 -60 3 -120h-12l-22 78q-7 22 -20 30.5t-39 8.5h-202v-249q0 -22 8 -30.5t34 -8.5h222q30 0 50.5 9.5t42 39.5t48.5 91h20z" />
    <glyph glyph-name="glyph297" horiz-adv-x="417" vert-adv-y="1301" 
d="M228 540l107 111v-15l-93 -158h-28l-93 158v15zM387 251h-279q-3 -20 -3 -40q0 -78 42.5 -127t115.5 -49q35 0 64 14t63 46l4 -24q-70 -87 -181 -87q-73 0 -122 59t-49 143q0 92 54.5 152.5t138.5 60.5q64 0 106.5 -40.5t45.5 -107.5zM113 272h182q27 0 27 21t-20 52
t-71 31q-44 0 -76 -28.5t-42 -75.5z" />
    <glyph glyph-name="Gcircumflex" unicode="&#x11c;" horiz-adv-x="771" vert-adv-y="1301" 
d="M545 686l-107 111l-107 -111v15l93 158h28l93 -158v-15zM757 261l-65 -7q-17 -2 -23.5 -8t-6.5 -20v-111q0 -35 -2 -48t-9.5 -23.5t-47 -26t-91.5 -24.5t-108 -9q-164 0 -261 87t-97 227q0 149 107.5 243t276.5 94q133 0 222 -48l8 -120l-14 -3q-62 149 -200 149
q-141 0 -221 -82t-80 -221q0 -121 82.5 -211.5t202.5 -90.5q150 0 150 107v111q0 15 -7.5 21t-23.5 7l-96 7v18q77 -4 127 -4q99 0 177 4v-18z" />
    <glyph glyph-name="gcircumflex" unicode="&#x11d;" horiz-adv-x="448" vert-adv-y="1301" 
d="M385 477l-107 111l-107 -111v15l93 158h28l93 -158v-15zM164 -38q-44 17 -69 40t-25 43q0 16 10.5 25t38.5 17q25 8 53 20q-48 27 -70.5 59.5t-22.5 77.5q0 65 46.5 110t117.5 45q32 0 55 -7.5t52 -25.5q25 -16 40 -16q12 0 41 4q26 3 36 3q17 0 21.5 -7t4.5 -29
q0 -15 -17 -15q-12 0 -44 8q-40 10 -48 7q21 -42 21 -75q0 -50 -42.5 -99t-134.5 -49q-39 0 -70 -15t-31 -29q0 -17 55 -34t139 -20q72 -2 112 -31.5t40 -74.5q0 -38 -27.5 -74.5t-86.5 -58t-127 -21.5q-83 0 -138.5 32.5t-55.5 72.5q0 63 126 117zM239 382q-95 0 -95 -136
q0 -61 27 -96t69 -35q45 0 72 34t27 96q0 63 -28 100t-72 37zM97 -145q0 -39 39 -67t104 -28q83 0 136 31t53 77q0 48 -50 65.5t-147 17.5q-69 0 -102 -31t-33 -65z" />
    <glyph glyph-name="Gdotaccent" unicode="&#x120;" horiz-adv-x="771" vert-adv-y="1301" 
d="M377 726q0 17 12.5 29.5t29.5 12.5t29.5 -12.5t12.5 -29.5t-12.5 -29.5t-29.5 -12.5t-29.5 12.5t-12.5 29.5zM757 261l-65 -7q-17 -2 -23.5 -8t-6.5 -20v-111q0 -35 -2 -48t-9.5 -23.5t-47 -26t-91.5 -24.5t-108 -9q-164 0 -261 87t-97 227q0 149 107.5 243t276.5 94
q133 0 222 -48l8 -120l-14 -3q-62 149 -200 149q-141 0 -221 -82t-80 -221q0 -121 82.5 -211.5t202.5 -90.5q150 0 150 107v111q0 15 -7.5 21t-23.5 7l-96 7v18q77 -4 127 -4q99 0 177 4v-18z" />
    <glyph glyph-name="gdotaccent" unicode="&#x121;" horiz-adv-x="448" vert-adv-y="1301" 
d="M215 558q0 17 12.5 29.5t29.5 12.5t29.5 -12.5t12.5 -29.5t-12.5 -29.5t-29.5 -12.5t-29.5 12.5t-12.5 29.5zM164 -38q-44 17 -69 40t-25 43q0 16 10.5 25t38.5 17q25 8 53 20q-48 27 -70.5 59.5t-22.5 77.5q0 65 46.5 110t117.5 45q32 0 55 -7.5t52 -25.5q25 -16 40 -16
q12 0 41 4q26 3 36 3q17 0 21.5 -7t4.5 -29q0 -15 -17 -15q-12 0 -44 8q-40 10 -48 7q21 -42 21 -75q0 -50 -42.5 -99t-134.5 -49q-39 0 -70 -15t-31 -29q0 -17 55 -34t139 -20q72 -2 112 -31.5t40 -74.5q0 -38 -27.5 -74.5t-86.5 -58t-127 -21.5q-83 0 -138.5 32.5
t-55.5 72.5q0 63 126 117zM239 382q-95 0 -95 -136q0 -61 27 -96t69 -35q45 0 72 34t27 96q0 63 -28 100t-72 37zM97 -145q0 -39 39 -67t104 -28q83 0 136 31t53 77q0 48 -50 65.5t-147 17.5q-69 0 -102 -31t-33 -65z" />
    <glyph glyph-name="Gcommaaccent" unicode="&#x122;" horiz-adv-x="771" vert-adv-y="1301" 
d="M757 261l-65 -7q-17 -2 -23.5 -8t-6.5 -20v-111q0 -35 -2 -48t-9.5 -23.5t-47 -26t-91.5 -24.5t-108 -9q-164 0 -261 87t-97 227q0 149 107.5 243t276.5 94q133 0 222 -48l8 -120l-14 -3q-62 149 -200 149q-141 0 -221 -82t-80 -221q0 -121 82.5 -211.5t202.5 -90.5
q150 0 150 107v111q0 15 -7.5 21t-23.5 7l-96 7v18q77 -4 127 -4q99 0 177 4v-18zM333 -303v22q42 17 67 48.5t25 54.5q0 34 -33 34l-20 -1q-14 0 -25.5 12t-11.5 27q0 18 16 31.5t35 13.5q36 0 63 -25.5t27 -61.5q0 -50 -44.5 -98t-98.5 -57z" />
    <glyph glyph-name="gcommaaccent" unicode="&#x123;" horiz-adv-x="448" vert-adv-y="1301" 
d="M335 687v-22q-42 -17 -67 -48.5t-25 -54.5q0 -34 33 -34l20 1q14 0 25.5 -12t11.5 -27q0 -18 -16 -31.5t-35 -13.5q-36 0 -63 25.5t-27 61.5q0 50 44.5 98t98.5 57zM164 -38q-44 17 -69 40t-25 43q0 16 10.5 25t38.5 17q25 8 53 20q-48 27 -70.5 59.5t-22.5 77.5
q0 65 46.5 110t117.5 45q32 0 55 -7.5t52 -25.5q25 -16 40 -16q12 0 41 4q26 3 36 3q17 0 21.5 -7t4.5 -29q0 -15 -17 -15q-12 0 -44 8q-40 10 -48 7q21 -42 21 -75q0 -50 -42.5 -99t-134.5 -49q-39 0 -70 -15t-31 -29q0 -17 55 -34t139 -20q72 -2 112 -31.5t40 -74.5
q0 -38 -27.5 -74.5t-86.5 -58t-127 -21.5q-83 0 -138.5 32.5t-55.5 72.5q0 63 126 117zM239 382q-95 0 -95 -136q0 -61 27 -96t69 -35q45 0 72 34t27 96q0 63 -28 100t-72 37zM97 -145q0 -39 39 -67t104 -28q83 0 136 31t53 77q0 48 -50 65.5t-147 17.5q-69 0 -102 -31
t-33 -65z" />
    <glyph glyph-name="Hcircumflex" unicode="&#x124;" horiz-adv-x="760" vert-adv-y="1301" 
d="M507 688l-107 111l-107 -111v15l93 158h28l93 -158v-15zM560 568q0 20 -5 28.5t-17 9.5l-53 6v16q38 -4 169 -4q40 0 76 4v-16l-71 -10q-13 -2 -17 -9t-4 -26v-499q0 -21 4.5 -30t22.5 -12l77 -14v-16q-50 4 -153 4q-58 0 -111 -4v16l62 10q12 2 16 12t4 34v231h-359
v-231q0 -25 4 -34.5t17 -11.5l62 -10v-16q-53 4 -111 4q-103 0 -153 -4v16l77 14q16 3 21 12t5 30v500q0 20 -5 28.5t-17 9.5l-53 6v16q38 -4 171 -4q43 0 79 4v-16l-76 -10q-13 -2 -17 -9t-4 -26v-239h359v240z" />
    <glyph glyph-name="hcircumflex" unicode="&#x125;" horiz-adv-x="510" vert-adv-y="1301" 
d="M375 702l-107 111l-107 -111v15l93 158h28l93 -158v-15zM90 553q0 27 -12.5 37.5t-61.5 21.5v12q42 2 110 36h24v-353q73 92 160 92q53 0 85.5 -36t32.5 -100v-216q0 -10 4 -15.5t21 -9.5l44 -10v-16q-62 4 -96 4q-35 0 -97 -4v16l41 11q13 4 18.5 9t5.5 22v207
q0 42 -25 67t-69 25q-34 0 -63 -19.5t-62 -61.5v-218q0 -12 3.5 -17t15.5 -8l68 -17v-16q-32 4 -111 4t-111 -4v16l54 11q13 3 17 6.5t4 15.5v508z" />
    <glyph glyph-name="Hbar" unicode="&#x126;" horiz-adv-x="760" vert-adv-y="1301" 
d="M123 483v85q0 20 -5 28.5t-17 9.5l-53 6v16q38 -4 171 -4q43 0 79 4v-16l-76 -10q-13 -2 -17 -9t-4 -26v-84h359v85q0 20 -5 28.5t-17 9.5l-53 6v16q38 -4 169 -4q40 0 76 4v-16l-71 -10q-13 -2 -17 -9t-4 -26v-84h94q-3 -6 -3 -13t3 -16h-94v-386q0 -21 4.5 -30
t22.5 -12l77 -14v-16q-50 4 -153 4q-58 0 -111 -4v16l62 10q12 2 16 12t4 34v231h-359v-231q0 -25 4 -34.5t17 -11.5l62 -10v-16q-53 4 -111 4q-103 0 -153 -4v16l77 14q16 3 21 12t5 30v386h-82q-1 7 -1 14q-1 7 1 15h82zM201 454v-126h359v126h-359z" />
    <glyph glyph-name="hbar" unicode="&#x127;" horiz-adv-x="510" vert-adv-y="1301" 
d="M152 480v-173q73 92 160 92q53 0 85.5 -36t32.5 -100v-216q0 -10 4 -15.5t21 -9.5l44 -10v-16q-62 4 -96 4q-35 0 -97 -4v16l41 11q13 4 18.5 9t5.5 22v207q0 42 -25 67t-69 25q-34 0 -63 -19.5t-62 -61.5v-218q0 -12 3.5 -17t15.5 -8l68 -17v-16q-32 4 -111 4t-111 -4
v16l54 11q13 3 17 6.5t4 15.5v435h-91q-2 8 -2 15t2 13h91v45q0 27 -12.5 37.5t-61.5 21.5v12q42 2 110 36h24v-152h126q-2 -8 -2 -14q0 -7 2 -14h-126z" />
    <glyph glyph-name="Itilde" unicode="&#x128;" horiz-adv-x="354" vert-adv-y="1301" 
d="M306 776h15q1 -47 -21.5 -73.5t-59.5 -26.5q-34 0 -75 30q-40 29 -65 29q-37 0 -44 -58h-15q5 99 81 99q18 0 32 -5.5t45 -25.5q42 -28 65 -28q34 0 42 59zM139 54v517q0 17 -5.5 24t-19.5 8l-88 9v16q11 -3 210 -3q59 0 94 3v-17l-88 -9q-14 -1 -19.5 -7t-5.5 -24v-517
q0 -17 5 -22.5t20 -6.5l88 -5v-24q-40 4 -152 4t-152 -4v24l88 5q15 2 20 7t5 22z" />
    <glyph glyph-name="itilde" unicode="&#x129;" horiz-adv-x="229" vert-adv-y="1301" 
d="M251 604h15q1 -47 -21.5 -73.5t-59.5 -26.5q-34 0 -75 30q-40 29 -65 29q-37 0 -44 -58h-15q5 99 81 99q18 0 32 -5.5t45 -25.5q42 -28 65 -28q34 0 42 59zM222 -4q-31 4 -110 4t-110 -4v16l56 11q31 6 31 36v235q0 24 -12 35t-48 19v14q71 18 104 72h16v-378
q0 -15 4.5 -22t17.5 -10l51 -12v-16z" />
    <glyph glyph-name="Imacron" unicode="&#x12a;" horiz-adv-x="354" vert-adv-y="1301" 
d="M306 730h-262v44h262v-44zM139 54v517q0 17 -5.5 24t-19.5 8l-88 9v16q11 -3 210 -3q59 0 94 3v-17l-88 -9q-14 -1 -19.5 -7t-5.5 -24v-517q0 -17 5 -22.5t20 -6.5l88 -5v-24q-40 4 -152 4t-152 -4v24l88 5q15 2 20 7t5 22z" />
    <glyph glyph-name="glyph311" horiz-adv-x="229" vert-adv-y="1301" 
d="M252 534h-262v44h262v-44zM222 -4q-31 4 -110 4t-110 -4v16l56 11q31 6 31 36v235q0 24 -12 35t-48 19v14q71 18 104 72h16v-378q0 -15 4.5 -22t17.5 -10l51 -12v-16z" />
    <glyph glyph-name="Ibreve" unicode="&#x12c;" horiz-adv-x="354" vert-adv-y="1301" 
d="M297 828q0 -56 -34.5 -96.5t-85.5 -40.5q-48 0 -83.5 41t-35.5 96h13q17 -82 107 -82q89 0 106 82h13zM139 54v517q0 17 -5.5 24t-19.5 8l-88 9v16q11 -3 210 -3q59 0 94 3v-17l-88 -9q-14 -1 -19.5 -7t-5.5 -24v-517q0 -17 5 -22.5t20 -6.5l88 -5v-24q-40 4 -152 4
t-152 -4v24l88 5q15 2 20 7t5 22z" />
    <glyph glyph-name="ibreve" unicode="&#x12d;" horiz-adv-x="229" vert-adv-y="1301" 
d="M246 619q0 -56 -34.5 -96.5t-85.5 -40.5q-48 0 -83.5 41t-35.5 96h13q17 -82 107 -82q89 0 106 82h13zM222 -4q-31 4 -110 4t-110 -4v16l56 11q31 6 31 36v235q0 24 -12 35t-48 19v14q71 18 104 72h16v-378q0 -15 4.5 -22t17.5 -10l51 -12v-16z" />
    <glyph glyph-name="Iogonek" unicode="&#x12e;" horiz-adv-x="354" vert-adv-y="1301" 
d="M130 0q-60 0 -104 -4v24l88 5q15 2 20 7t5 22v517q0 17 -5.5 24t-19.5 8l-88 9v16q11 -3 210 -3q59 0 94 3v-17l-88 -9q-14 -1 -19.5 -7t-5.5 -24v-517q0 -17 5 -22.5t20 -6.5l88 -5v-24q-40 4 -168 4q-15 -27 -15 -50q0 -32 29.5 -59.5t65.5 -27.5q34 0 68 26l12 -13
q-51 -54 -117 -54q-46 0 -77.5 29t-31.5 66q0 39 34 83z" />
    <glyph glyph-name="iogonek" unicode="&#x12f;" horiz-adv-x="229" vert-adv-y="1301" 
d="M69 598q0 17 12.5 29.5t29.5 12.5t29.5 -12.5t12.5 -29.5t-12.5 -29.5t-29.5 -12.5t-29.5 12.5t-12.5 29.5zM66 0q-48 -2 -64 -4v16l56 11q31 6 31 36v235q0 24 -12 35t-48 19v14q71 18 104 72h16v-378q0 -15 4.5 -22t17.5 -10l51 -12v-16q-31 4 -127 4q-14 -23 -14 -45
q0 -32 29 -55.5t57 -23.5t61 23l11 -10q-47 -49 -105 -49q-41 0 -70 25t-29 60t31 75z" />
    <glyph glyph-name="IJ" unicode="&#x132;" horiz-adv-x="688" vert-adv-y="1301" 
d="M139 54v517q0 17 -5.5 24t-19.5 8l-88 9v16q11 -3 210 -3q59 0 94 3v-17l-88 -9q-14 -1 -19.5 -7t-5.5 -24v-517q0 -17 5 -22.5t20 -6.5l88 -5v-24q-40 4 -152 4t-152 -4v24l88 5q15 2 20 7t5 22zM631 612l-49 -9q-14 -2 -18 -10t-4 -27v-474q0 -70 -13 -126t-40 -103
t-53.5 -71.5t-54 -33t-68.5 -8.5q-62 0 -62 42q0 18 9 28.5t24 10.5q24 0 52 -25q20 -18 40 -18q28 0 51.5 32.5t30.5 74t7 193.5v481q0 14 -3.5 22t-10.5 10.5t-29 4.5l-59 6v16q25 -3 125 -3q99 0 125 3v-16z" />
    <glyph glyph-name="ij" unicode="&#x133;" horiz-adv-x="479" vert-adv-y="1301" 
d="M112 640q17 0 31 -13t14 -30q0 -16 -14.5 -28.5t-32.5 -12.5q-17 0 -29 12t-12 29t13 30t30 13zM354 640q20 0 31.5 -12.5t11.5 -32.5t-12.5 -31.5t-32.5 -11.5q-17 0 -28.5 12.5t-11.5 30.5q0 20 11.5 32.5t30.5 12.5zM222 -4q-31 4 -110 4t-110 -4v16l56 11q31 6 31 36
v235q0 24 -12 35t-48 19v14q71 18 104 72h16v-378q0 -15 4.5 -22t17.5 -10l51 -12v-16zM270 -235q38 32 55 77.5t17 117.5v338q0 26 -11 34.5t-51 12.5v19q74 21 106 70h15v-468q0 -60 -32 -117.5t-91 -94.5z" />
    <glyph glyph-name="Jcircumflex" unicode="&#x134;" horiz-adv-x="333" vert-adv-y="1301" 
d="M262 688l-107 111l-107 -111v15l93 158h28l93 -158v-15zM274 612l-49 -9q-14 -2 -18 -10t-4 -27v-474q0 -70 -13 -126t-40 -103t-53.5 -71.5t-54 -33t-68.5 -8.5q-62 0 -62 42q0 18 9 28.5t24 10.5q24 0 52 -25q20 -18 40 -18q28 0 51.5 32.5t30.5 74t7 193.5v481
q0 14 -3.5 22t-10.5 10.5t-29 4.5l-59 6v16q25 -3 125 -3q99 0 125 3v-16z" />
    <glyph glyph-name="jcircumflex" unicode="&#x135;" horiz-adv-x="229" vert-adv-y="1301" 
d="M227 477l-107 111l-107 -111v15l93 158h28l93 -158v-15zM21 -235q38 32 55 77.5t17 117.5v338q0 26 -11 34.5t-51 12.5v19q74 21 106 70h15v-468q0 -60 -32 -117.5t-91 -94.5z" />
    <glyph glyph-name="Kcommaaccent" unicode="&#x136;" horiz-adv-x="740" vert-adv-y="1301" 
d="M292 -4q-38 4 -129 4t-129 -4v16l63 9q14 2 19.5 9t5.5 24v520q0 17 -4.5 22t-20.5 7l-63 9v16q12 -3 181 -3q42 0 77 3v-16l-67 -9q-15 -1 -20 -6.5t-5 -22.5v-520q0 -16 5.5 -22.5t19.5 -8.5l67 -11v-16zM760 -4q-54 4 -149 4t-149 -4v16l71 12q16 2 16 10q0 7 -18 22
l-233 195q-46 38 -81 62q46 23 95 64l179 151q54 45 54 63q0 9 -14 11l-72 10v16q29 -3 122 -3t122 3v-16q-47 -4 -90 -23t-105 -71l-203 -172l296 -253q52 -45 69.5 -57t37.5 -15l52 -9v-16zM344 -42q57 1 83 -19t26 -67q0 -39 -21 -61.5t-57 -22.5q-41 0 -41 28
q0 19 16 19q10 0 23 -6q15 -7 26 -7q28 0 28 32q0 59 -79 54z" />
    <glyph glyph-name="kcommaaccent" unicode="&#x137;" horiz-adv-x="469" vert-adv-y="1301" 
d="M478 -4q-38 4 -109 4t-109 -4v16l46 4q22 2 22 11q0 6 -7.5 16.5t-28 35.5t-46 58.5t-36 44.5t-19 15.5t-22.5 4.5h-18v-142q0 -25 5 -31.5t20 -9.5l38 -7v-16q-31 4 -94 4t-94 -4v16l37 6q18 2 23 9.5t5 32.5v497q0 23 -10.5 30.5t-51.5 13.5v14q51 10 106 45h16v-441
q20 0 40 12t53.5 39t47 41.5t13.5 23.5q0 20 -64 30v16h203v-16q-70 -7 -124 -53l-87 -75l134 -161q28 -33 41 -43.5t26 -12.5l44 -8v-16zM195 -42q57 1 83 -19t26 -67q0 -39 -21 -61.5t-57 -22.5q-41 0 -41 28q0 19 16 19q10 0 23 -6q15 -7 26 -7q28 0 28 32q0 59 -79 54z
" />
    <glyph glyph-name="kgreenlandic" unicode="&#x138;" horiz-adv-x="469" vert-adv-y="1301" 
d="M181 368l-34 -5q-13 -2 -17.5 -7.5t-4.5 -17.5v-295q0 -12 4.5 -17t15.5 -7l31 -6v-17q-44 4 -80 4t-80 -4v13l29 5q22 4 22 29v295q0 12 -3 17t-17 8l-26 5v17q26 -4 80 -4q52 0 80 4v-17zM449 -4q-47 4 -92 4t-92 -4v17l43 7q10 2 10 6q0 2 -5 7l-170 157q42 30 67 54
l104 99q9 8 9 12q0 10 -55 11v15h154v-13q-71 -19 -101 -47l-72 -67q-30 -27 -48 -45l157 -144q39 -36 56 -41l35 -11v-17z" />
    <glyph glyph-name="Lacute" unicode="&#x139;" horiz-adv-x="573" vert-adv-y="1301" 
d="M231 687l60 87q43 63 77 63q12 0 20.5 -7.5t8.5 -16.5q0 -23 -72 -71l-90 -60zM208 45q0 -13 4.5 -19.5t23.5 -6.5h93q87 0 117 9t61.5 42t54.5 90h16l-29 -164q-82 4 -269 4q-205 0 -270 -4v14l91 13q26 3 26 21v523q0 19 -6.5 24.5t-19.5 7.5l-77 13v16q54 -3 206 -3
q64 0 90 3v-16l-86 -13q-15 -2 -20.5 -6.5t-5.5 -25.5v-522z" />
    <glyph glyph-name="lacute" unicode="&#x13a;" horiz-adv-x="229" vert-adv-y="1301" 
d="M49 661l60 87q43 63 77 63q12 0 20.5 -7.5t8.5 -16.5q0 -23 -72 -71l-90 -60zM227 -3q-49 3 -111 3t-111 -3v16l62 12q13 3 18 8t5 20v508q0 21 -12 31t-53 22v13q38 8 103 33h23v-605q0 -19 4 -24.5t19 -8.5l53 -9v-16z" />
    <glyph glyph-name="Lcommaaccent" unicode="&#x13b;" horiz-adv-x="573" vert-adv-y="1301" 
d="M208 45q0 -13 4.5 -19.5t23.5 -6.5h93q87 0 117 9t61.5 42t54.5 90h16l-29 -164q-82 4 -269 4q-205 0 -270 -4v14l91 13q26 3 26 21v523q0 19 -6.5 24.5t-19.5 7.5l-77 13v16q54 -3 206 -3q64 0 90 3v-16l-86 -13q-15 -2 -20.5 -6.5t-5.5 -25.5v-522zM273 -42
q57 1 83 -19t26 -67q0 -39 -21 -61.5t-57 -22.5q-41 0 -41 28q0 19 16 19q10 0 23 -6q15 -7 26 -7q28 0 28 32q0 59 -79 54z" />
    <glyph glyph-name="lcommaaccent" unicode="&#x13c;" horiz-adv-x="229" vert-adv-y="1301" 
d="M227 -3q-49 3 -111 3t-111 -3v16l62 12q13 3 18 8t5 20v508q0 21 -12 31t-53 22v13q38 8 103 33h23v-605q0 -19 4 -24.5t19 -8.5l53 -9v-16zM65 -42q57 1 83 -19t26 -67q0 -39 -21 -61.5t-57 -22.5q-41 0 -41 28q0 19 16 19q10 0 23 -6q15 -7 26 -7q28 0 28 32
q0 59 -79 54z" />
    <glyph glyph-name="Lcaron" unicode="&#x13d;" horiz-adv-x="573" vert-adv-y="1301" 
d="M386 393v22q42 17 67 48.5t25 54.5q0 34 -33 34l-20 -1q-14 0 -25.5 12t-11.5 27q0 18 16 31.5t35 13.5q36 0 63 -25.5t27 -61.5q0 -50 -44.5 -98t-98.5 -57zM208 45q0 -13 4.5 -19.5t23.5 -6.5h93q87 0 117 9t61.5 42t54.5 90h16l-29 -164q-82 4 -269 4q-205 0 -270 -4
v14l91 13q26 3 26 21v523q0 19 -6.5 24.5t-19.5 7.5l-77 13v16q54 -3 206 -3q64 0 90 3v-16l-86 -13q-15 -2 -20.5 -6.5t-5.5 -25.5v-522z" />
    <glyph glyph-name="lcaron" unicode="&#x13e;" horiz-adv-x="375" vert-adv-y="1301" 
d="M204 418v22q42 17 67 48.5t25 54.5q0 34 -33 34l-20 -1q-14 0 -25.5 12t-11.5 27q0 18 16 31.5t35 13.5q36 0 63 -25.5t27 -61.5q0 -50 -44.5 -98t-98.5 -57zM227 -3q-49 3 -111 3t-111 -3v16l62 12q13 3 18 8t5 20v508q0 21 -12 31t-53 22v13q38 8 103 33h23v-605
q0 -19 4 -24.5t19 -8.5l53 -9v-16z" />
    <glyph glyph-name="Ldot" unicode="&#x13f;" horiz-adv-x="573" vert-adv-y="1301" 
d="M208 45q0 -13 4.5 -19.5t23.5 -6.5h93q87 0 117 9t61.5 42t54.5 90h16l-29 -164q-82 4 -269 4q-205 0 -270 -4v14l91 13q26 3 26 21v523q0 19 -6.5 24.5t-19.5 7.5l-77 13v16q54 -3 206 -3q64 0 90 3v-16l-86 -13q-15 -2 -20.5 -6.5t-5.5 -25.5v-522zM343 321q0 17 13 30
t30 13t30 -13t13 -30t-13 -29.5t-30 -12.5t-30 12.5t-13 29.5z" />
    <glyph glyph-name="ldot" unicode="&#x140;" horiz-adv-x="328" vert-adv-y="1301" 
d="M227 -3q-49 3 -111 3t-111 -3v16l62 12q13 3 18 8t5 20v508q0 21 -12 31t-53 22v13q38 8 103 33h23v-605q0 -19 4 -24.5t19 -8.5l53 -9v-16zM216 337q0 17 12.5 29.5t29.5 12.5t29.5 -12.5t12.5 -29.5t-12.5 -29.5t-29.5 -12.5t-29.5 12.5t-12.5 29.5z" />
    <glyph glyph-name="Nacute" unicode="&#x143;" horiz-adv-x="771" vert-adv-y="1301" 
d="M324 692l60 87q43 63 77 63q12 0 20.5 -7.5t8.5 -16.5q0 -23 -72 -71l-90 -60zM148 67q0 -25 6 -33.5t25 -10.5l92 -10v-16q-60 3 -129 3q-51 0 -130 -3v16l55 10q34 6 43.5 14t9.5 30v436q0 46 -10 69t-38 27l-59 9v17h120q21 0 29.5 -5t23.5 -21l452 -493l-10 450
q-1 28 -9.5 36t-26.5 10l-86 10v16q28 -3 108 -3t108 3v-16l-42 -4q-17 -2 -21 -12t-3 -40l10 -569h-24l-494 530v-450z" />
    <glyph glyph-name="glyph332" horiz-adv-x="510" vert-adv-y="1301" 
d="M210 480l60 87q43 63 77 63q12 0 20.5 -7.5t8.5 -16.5q0 -23 -72 -71l-90 -60zM500 -3q-52 3 -104 3t-104 -3v16l55 8q22 3 22 39v197q0 44 -25 70t-68 26q-64 0 -125 -61v-243q0 -16 24 -22l59 -14v-16q-37 3 -108 3t-108 -3v16l53 10q20 3 20 30v198q0 31 -12.5 42
t-44.5 16v18q64 15 101 90h16v-90q38 33 84 52.5t81 19.5q115 0 115 -137v-199q0 -19 5 -29t20 -13l44 -8v-16z" />
    <glyph glyph-name="Ncommaaccent" unicode="&#x145;" horiz-adv-x="771" vert-adv-y="1301" 
d="M148 67q0 -25 6 -33.5t25 -10.5l92 -10v-16q-60 3 -129 3q-51 0 -130 -3v16l55 10q34 6 43.5 14t9.5 30v436q0 46 -10 69t-38 27l-59 9v17h120q21 0 29.5 -5t23.5 -21l452 -493l-10 450q-1 28 -9.5 36t-26.5 10l-86 10v16q28 -3 108 -3t108 3v-16l-42 -4q-17 -2 -21 -12
t-3 -40l10 -569h-24l-494 530v-450zM373 -42q57 1 83 -19t26 -67q0 -39 -21 -61.5t-57 -22.5q-41 0 -41 28q0 19 16 19q10 0 23 -6q15 -7 26 -7q28 0 28 32q0 59 -79 54z" />
    <glyph glyph-name="ncommaaccent" unicode="&#x146;" horiz-adv-x="510" vert-adv-y="1301" 
d="M500 -3q-52 3 -104 3t-104 -3v16l55 8q22 3 22 39v197q0 44 -25 70t-68 26q-64 0 -125 -61v-243q0 -16 24 -22l59 -14v-16q-37 3 -108 3t-108 -3v16l53 10q20 3 20 30v198q0 31 -12.5 42t-44.5 16v18q64 15 101 90h16v-90q38 33 84 52.5t81 19.5q115 0 115 -137v-199
q0 -19 5 -29t20 -13l44 -8v-16zM221 -42q57 1 83 -19t26 -67q0 -39 -21 -61.5t-57 -22.5q-41 0 -41 28q0 19 16 19q10 0 23 -6q15 -7 26 -7q28 0 28 32q0 59 -79 54z" />
    <glyph glyph-name="Ncaron" unicode="&#x147;" horiz-adv-x="771" vert-adv-y="1301" 
d="M388 752l107 111v-15l-93 -158h-28l-93 158v15zM148 67q0 -25 6 -33.5t25 -10.5l92 -10v-16q-60 3 -129 3q-51 0 -130 -3v16l55 10q34 6 43.5 14t9.5 30v436q0 46 -10 69t-38 27l-59 9v17h120q21 0 29.5 -5t23.5 -21l452 -493l-10 450q-1 28 -9.5 36t-26.5 10l-86 10v16
q28 -3 108 -3t108 3v-16l-42 -4q-17 -2 -21 -12t-3 -40l10 -569h-24l-494 530v-450z" />
    <glyph glyph-name="glyph336" horiz-adv-x="510" vert-adv-y="1301" 
d="M271 539l107 111v-15l-93 -158h-28l-93 158v15zM500 -3q-52 3 -104 3t-104 -3v16l55 8q22 3 22 39v197q0 44 -25 70t-68 26q-64 0 -125 -61v-243q0 -16 24 -22l59 -14v-16q-37 3 -108 3t-108 -3v16l53 10q20 3 20 30v198q0 31 -12.5 42t-44.5 16v18q64 15 101 90h16v-90
q38 33 84 52.5t81 19.5q115 0 115 -137v-199q0 -19 5 -29t20 -13l44 -8v-16z" />
    <glyph glyph-name="napostrophe" unicode="&#x149;" horiz-adv-x="667" vert-adv-y="1301" 
d="M47 416q42 17 67 48.5t25 54.5q0 34 -33 34l-20 -1q-14 0 -25.5 12t-11.5 27q0 18 16 31.5t35 13.5q36 0 63 -25.5t27 -61.5q0 -50 -44.5 -98t-98.5 -57v22zM661 -3q-52 3 -104 3t-104 -3v16l55 8q22 3 22 39v197q0 44 -25 70t-68 26q-64 0 -125 -61v-243q0 -16 24 -22
l59 -14v-16q-37 3 -108 3t-108 -3v16l53 10q20 3 20 30v198q0 31 -12.5 42t-44.5 16v18q64 15 101 90h16v-90q38 33 84 52.5t81 19.5q115 0 115 -137v-199q0 -19 5 -29t20 -13l44 -8v-16z" />
    <glyph glyph-name="Eng" unicode="&#x14a;" vert-adv-y="1301" 
d="M220 476q51 83 99.5 121t119.5 38q120 0 191.5 -90t71.5 -251q0 -141 -64 -225.5t-164 -84.5q-72 0 -113 42t-41 110q0 39 22 65.5t51 26.5q20 0 33 -11.5t13 -29.5q0 -37 -47 -65q-33 -19 -33 -41q0 -27 32.5 -50t75.5 -23q66 0 103.5 70.5t37.5 198.5
q0 168 -43.5 245.5t-143.5 77.5q-66 0 -114 -45t-87 -141v-351q0 -21 8.5 -30.5t25.5 -12.5l47 -7v-16q-52 3 -126 3q-73 0 -126 -3v15l54 11q23 5 33 14.5t10 30.5v424q0 47 -16.5 60.5t-75.5 17.5v13q77 8 110.5 18.5t50.5 33.5h13q-8 -80 -8 -159z" />
    <glyph glyph-name="eng" unicode="&#x14b;" horiz-adv-x="473" vert-adv-y="1301" 
d="M424 -49q0 -89 -10 -123t-44 -57.5t-85 -23.5q-46 0 -70 19.5t-24 40.5q0 12 9 19.5t24 7.5q30 0 42 -36q8 -22 14 -28t19 -6q25 0 40.5 15t19.5 38t4 78v365q0 43 -24.5 66.5t-69.5 23.5q-83 0 -124 -55v-227q0 -18 4 -23.5t20 -9.5l62 -15v-24q-34 4 -107 4
q-74 0 -107 -4v16l36 7q21 4 27 12.5t6 35.5v180q0 37 -13.5 47.5t-43.5 13.5v15q39 9 60 28t38 58h18v-76q70 66 171 66q52 0 80 -35.5t28 -103.5v-309z" />
    <glyph glyph-name="Omacron" unicode="&#x14c;" horiz-adv-x="781" vert-adv-y="1301" 
d="M528 732h-262v44h262v-44zM389 -16q-153 0 -248 91t-95 231q0 136 97 232.5t260 96.5q138 0 234 -92.5t96 -230.5q0 -147 -95 -237.5t-249 -90.5zM136 299q0 -119 71.5 -208t177.5 -89q127 0 193.5 78t66.5 226q0 138 -70.5 224t-185.5 86q-82 0 -140.5 -44t-85.5 -119.5
t-27 -153.5z" />
    <glyph glyph-name="glyph341" horiz-adv-x="510" vert-adv-y="1301" 
d="M398 534h-262v44h262v-44zM248 -16q-87 0 -148 58t-61 151q0 89 61 147.5t160 58.5q92 0 151 -61.5t59 -152.5q0 -83 -62.5 -142t-159.5 -59zM111 183q0 -83 39 -131.5t101 -48.5q64 0 105.5 51t41.5 135q0 86 -39 138.5t-103 52.5q-69 0 -107 -50t-38 -147z" />
    <glyph glyph-name="Obreve" unicode="&#x14e;" horiz-adv-x="781" vert-adv-y="1301" 
d="M509 829q0 -56 -34.5 -96.5t-85.5 -40.5q-48 0 -83.5 41t-35.5 96h13q17 -82 107 -82q89 0 106 82h13zM389 -16q-153 0 -248 91t-95 231q0 136 97 232.5t260 96.5q138 0 234 -92.5t96 -230.5q0 -147 -95 -237.5t-249 -90.5zM136 299q0 -119 71.5 -208t177.5 -89
q127 0 193.5 78t66.5 226q0 138 -70.5 224t-185.5 86q-82 0 -140.5 -44t-85.5 -119.5t-27 -153.5z" />
    <glyph glyph-name="obreve" unicode="&#x14f;" horiz-adv-x="510" vert-adv-y="1301" 
d="M381 601q0 -56 -34.5 -96.5t-85.5 -40.5q-48 0 -83.5 41t-35.5 96h13q17 -82 107 -82q89 0 106 82h13zM248 -16q-87 0 -148 58t-61 151q0 89 61 147.5t160 58.5q92 0 151 -61.5t59 -152.5q0 -83 -62.5 -142t-159.5 -59zM111 183q0 -83 39 -131.5t101 -48.5q64 0 105.5 51
t41.5 135q0 86 -39 138.5t-103 52.5q-69 0 -107 -50t-38 -147z" />
    <glyph glyph-name="Ohungarumlaut" unicode="&#x150;" horiz-adv-x="781" vert-adv-y="1301" 
d="M301 689l60 87q43 63 77 63q12 0 20.5 -7.5t8.5 -16.5q0 -23 -72 -71l-90 -60zM427 689l60 87q43 63 77 63q12 0 20.5 -7.5t8.5 -16.5q0 -23 -72 -71l-90 -60zM389 -16q-153 0 -248 91t-95 231q0 136 97 232.5t260 96.5q138 0 234 -92.5t96 -230.5q0 -147 -95 -237.5
t-249 -90.5zM136 299q0 -119 71.5 -208t177.5 -89q127 0 193.5 78t66.5 226q0 138 -70.5 224t-185.5 86q-82 0 -140.5 -44t-85.5 -119.5t-27 -153.5z" />
    <glyph glyph-name="ohungarumlaut" unicode="&#x151;" horiz-adv-x="510" vert-adv-y="1301" 
d="M151 481l60 87q43 63 77 63q12 0 20.5 -7.5t8.5 -16.5q0 -23 -72 -71l-90 -60zM275 481l60 87q43 63 77 63q12 0 20.5 -7.5t8.5 -16.5q0 -23 -72 -71l-90 -60zM248 -16q-87 0 -148 58t-61 151q0 89 61 147.5t160 58.5q92 0 151 -61.5t59 -152.5q0 -83 -62.5 -142
t-159.5 -59zM111 183q0 -83 39 -131.5t101 -48.5q64 0 105.5 51t41.5 135q0 86 -39 138.5t-103 52.5q-69 0 -107 -50t-38 -147z" />
    <glyph glyph-name="Racute" unicode="&#x154;" horiz-adv-x="625" vert-adv-y="1301" 
d="M209 690l60 87q43 63 77 63q12 0 20.5 -7.5t8.5 -16.5q0 -23 -72 -71l-90 -60zM21 12l55 6q29 3 38.5 11.5t9.5 40.5v468q0 31 -8 44t-47 20l-44 8l-1 15q44 0 62 1l164 9q20 1 38 1q106 0 157.5 -37t51.5 -115q0 -59 -29.5 -93.5t-90.5 -63.5l110 -195
q45 -77 74.5 -93.5t79.5 -23.5v-16q-42 1 -103 1q-51 0 -72 -1l-153 283q-17 31 -50 31h-56v-237q0 -24 9.5 -35t33.5 -17l49 -12v-16q-72 4 -139 4q-79 0 -139 -4v16zM207 340q202 -7 202 128q0 62 -45.5 100.5t-122.5 38.5q-16 0 -34 -2v-265z" />
    <glyph glyph-name="racute" unicode="&#x155;" horiz-adv-x="333" vert-adv-y="1301" 
d="M128 480l60 87q44 64 77 64q11 0 20.5 -8.5t9.5 -16.5q0 -19 -74 -70l-89 -61zM21 -4v16l50 9q20 5 25.5 15t5.5 36v192q0 20 -8.5 29t-37.5 15l-27 6l2 15q39 14 65 32.5t46 60.5h18q4 -54 4 -126q19 36 55 69.5t64 33.5q22 0 35.5 -14t13.5 -36q0 -17 -11 -27t-28 -10
q-15 0 -32 7q-20 9 -33 9q-22 0 -43 -36t-21 -56v-166q0 -26 8.5 -34.5t36.5 -12.5l77 -11v-16q-54 4 -133 4q-75 0 -132 -4z" />
    <glyph glyph-name="Rcommaaccent" unicode="&#x156;" horiz-adv-x="625" vert-adv-y="1301" 
d="M21 12l55 6q29 3 38.5 11.5t9.5 40.5v468q0 31 -8 44t-47 20l-44 8l-1 15q44 0 62 1l164 9q20 1 38 1q106 0 157.5 -37t51.5 -115q0 -59 -29.5 -93.5t-90.5 -63.5l110 -195q45 -77 74.5 -93.5t79.5 -23.5v-16q-42 1 -103 1q-51 0 -72 -1l-153 283q-17 31 -50 31h-56v-237
q0 -24 9.5 -35t33.5 -17l49 -12v-16q-72 4 -139 4q-79 0 -139 -4v16zM207 340q202 -7 202 128q0 62 -45.5 100.5t-122.5 38.5q-16 0 -34 -2v-265zM285 -92l-4 50q56 2 82.5 -18.5t26.5 -67.5q0 -38 -21.5 -61t-56.5 -23q-41 0 -41 28q0 20 16 20q4 0 8 -2q25 -12 42 -12
q27 0 27 32q0 25 -16.5 40t-45.5 15q-8 0 -17 -1z" />
    <glyph glyph-name="rcommaaccent" unicode="&#x157;" horiz-adv-x="333" vert-adv-y="1301" 
d="M21 -4v16l50 9q20 5 25.5 15t5.5 36v192q0 20 -8.5 29t-37.5 15l-27 6l2 15q39 14 65 32.5t46 60.5h18q4 -54 4 -126q19 36 55 69.5t64 33.5q22 0 35.5 -14t13.5 -36q0 -17 -11 -27t-28 -10q-15 0 -32 7q-20 9 -33 9q-22 0 -43 -36t-21 -56v-166q0 -26 8.5 -34.5
t36.5 -12.5l77 -11v-16q-54 4 -133 4q-75 0 -132 -4zM107 -92l-4 50q57 2 83 -18t26 -68q0 -40 -21.5 -62t-54.5 -22q-43 0 -43 28q0 20 17 20q5 0 10 -3q23 -11 39 -11q27 0 27 32q0 26 -16.5 40.5t-45.5 14.5q-8 0 -17 -1z" />
    <glyph glyph-name="Rcaron" unicode="&#x158;" horiz-adv-x="625" vert-adv-y="1301" 
d="M390 849q-66 -117 -93 -159h-28q-18 26 -93 159l2 12l110 -107l101 109zM21 12l55 6q29 3 38.5 11.5t9.5 40.5v468q0 31 -8 44t-47 20l-44 8l-1 15q44 0 62 1l164 9q20 1 38 1q106 0 157.5 -37t51.5 -115q0 -59 -29.5 -93.5t-90.5 -63.5l110 -195q45 -77 74.5 -93.5
t79.5 -23.5v-16q-42 1 -103 1q-51 0 -72 -1l-153 283q-17 31 -50 31h-56v-237q0 -24 9.5 -35t33.5 -17l49 -12v-16q-72 4 -139 4q-79 0 -139 -4v16zM207 340q202 -7 202 128q0 62 -45.5 100.5t-122.5 38.5q-16 0 -34 -2v-265z" />
    <glyph glyph-name="rcaron" unicode="&#x159;" horiz-adv-x="333" vert-adv-y="1301" 
d="M295 636q-66 -117 -93 -159h-28l-93 159l2 12l110 -106l100 108q1 -3 2 -14zM21 -4v16l50 9q20 5 25.5 15t5.5 36v192q0 20 -8.5 29t-37.5 15l-27 6l2 15q39 14 65 32.5t46 60.5h18q4 -54 4 -126q19 36 55 69.5t64 33.5q22 0 35.5 -14t13.5 -36q0 -17 -11 -27t-28 -10
q-15 0 -32 7q-20 9 -33 9q-22 0 -43 -36t-21 -56v-166q0 -26 8.5 -34.5t36.5 -12.5l77 -11v-16q-54 4 -133 4q-75 0 -132 -4z" />
    <glyph glyph-name="Sacute" unicode="&#x15a;" horiz-adv-x="479" vert-adv-y="1301" 
d="M182 690l60 87q43 63 77 63q12 0 20.5 -7.5t8.5 -16.5q0 -23 -72 -71l-90 -60zM376 477q-29 131 -144 131q-54 0 -90.5 -31t-36.5 -73q0 -33 29.5 -61t122.5 -76q95 -49 137.5 -86t42.5 -110q0 -84 -58.5 -135.5t-163.5 -51.5q-97 0 -177 47l11 149h14q9 -74 60 -121.5
t113 -47.5q59 0 99.5 35t40.5 84q0 44 -32.5 74t-107.5 69q-104 54 -145 98t-41 101q0 71 55 117t143 46t145 -44l-4 -114h-13z" />
    <glyph glyph-name="sacute" unicode="&#x15b;" horiz-adv-x="365" vert-adv-y="1301" 
d="M141 481l60 87q43 63 77 63q12 0 20.5 -7.5t8.5 -16.5q0 -23 -72 -71l-90 -60zM280 288q-9 34 -40 61t-55 27q-73 0 -73 -67q0 -27 24 -45.5t73 -36.5q113 -43 113 -122q0 -52 -40 -86.5t-99 -34.5q-72 0 -118 26l-10 113h17q14 -53 49 -85.5t75 -32.5q32 0 54 20.5
t22 51.5q0 57 -94 92q-66 25 -94.5 52.5t-28.5 67.5q0 51 38 80.5t102 29.5q57 0 98 -24l6 -87h-19z" />
    <glyph glyph-name="Scircumflex" unicode="&#x15c;" horiz-adv-x="479" vert-adv-y="1301" 
d="M346 688l-107 111l-107 -111v15l93 158h28l93 -158v-15zM376 477q-29 131 -144 131q-54 0 -90.5 -31t-36.5 -73q0 -33 29.5 -61t122.5 -76q95 -49 137.5 -86t42.5 -110q0 -84 -58.5 -135.5t-163.5 -51.5q-97 0 -177 47l11 149h14q9 -74 60 -121.5t113 -47.5q59 0 99.5 35
t40.5 84q0 44 -32.5 74t-107.5 69q-104 54 -145 98t-41 101q0 71 55 117t143 46t145 -44l-4 -114h-13z" />
    <glyph glyph-name="scircumflex" unicode="&#x15d;" horiz-adv-x="365" vert-adv-y="1301" 
d="M308 477l-107 111l-107 -111v15l93 158h28l93 -158v-15zM280 288q-9 34 -40 61t-55 27q-73 0 -73 -67q0 -27 24 -45.5t73 -36.5q113 -43 113 -122q0 -52 -40 -86.5t-99 -34.5q-72 0 -118 26l-10 113h17q14 -53 49 -85.5t75 -32.5q32 0 54 20.5t22 51.5q0 57 -94 92
q-66 25 -94.5 52.5t-28.5 67.5q0 51 38 80.5t102 29.5q57 0 98 -24l6 -87h-19z" />
    <glyph glyph-name="Tcommaaccent" unicode="&#x162;" horiz-adv-x="615" vert-adv-y="1301" 
d="M42 646q7 26 15 26q7 0 19 -22q9 -18 17 -21.5t31 -3.5h387q36 0 47 5.5t21 28.5q6 14 15 14q13 0 13 -20l-2 -158q0 -16 -8 -16q-11 0 -18 29q-11 49 -27 68t-69 19h-125v-515q0 -27 6.5 -36t27.5 -14l78 -17v-16q-53 3 -156 3q-132 0 -156 -3v16l70 14q29 6 38 17.5
t9 36.5v514h-123q-33 1 -54 -15t-61 -73q-18 -26 -26 -26q-5 0 -5 11t5 32zM250 -287v22q42 17 67 48.5t25 54.5q0 34 -33 34l-20 -1q-14 0 -25.5 12t-11.5 27q0 18 16 31.5t35 13.5q36 0 63 -25.5t27 -61.5q0 -50 -44.5 -98t-98.5 -57z" />
    <glyph glyph-name="tcommaaccent" unicode="&#x163;" horiz-adv-x="292" vert-adv-y="1301" 
d="M153 482h12l1 -107l136 3v-36l-136 -4v-238q0 -45 12.5 -65t40.5 -20q34 0 82 28l9 -14q-21 -24 -48.5 -34.5t-74.5 -10.5q-52 0 -68 25.5t-16 100.5v226l-54 -1q-14 0 -14 8q0 7 13 13q43 18 62.5 41.5t42.5 84.5zM119 -283v22q42 17 67 48.5t25 54.5q0 34 -33 34
l-20 -1q-14 0 -25.5 12t-11.5 27q0 18 16 31.5t35 13.5q36 0 63 -25.5t27 -61.5q0 -50 -44.5 -98t-98.5 -57z" />
    <glyph glyph-name="Tcaron" unicode="&#x164;" horiz-adv-x="615" vert-adv-y="1301" 
d="M429 849q-66 -117 -93 -159h-28q-18 26 -93 159l2 12l110 -107l101 109zM42 646q7 26 15 26q7 0 19 -22q9 -18 17 -21.5t31 -3.5h387q36 0 47 5.5t21 28.5q6 14 15 14q13 0 13 -20l-2 -158q0 -16 -8 -16q-11 0 -18 29q-11 49 -27 68t-69 19h-125v-515q0 -27 6.5 -36
t27.5 -14l78 -17v-16q-53 3 -156 3q-132 0 -156 -3v16l70 14q29 6 38 17.5t9 36.5v514h-123q-33 1 -54 -15t-61 -73q-18 -26 -26 -26q-5 0 -5 11t5 32z" />
    <glyph glyph-name="tcaron" unicode="&#x165;" horiz-adv-x="500" vert-adv-y="1301" 
d="M338 393v22q42 17 67 48.5t25 54.5q0 34 -33 34l-20 -1q-14 0 -25.5 12t-11.5 27q0 18 16 31.5t35 13.5q36 0 63 -25.5t27 -61.5q0 -50 -44.5 -98t-98.5 -57zM153 482h12l1 -107l136 3v-36l-136 -4v-238q0 -45 12.5 -65t40.5 -20q34 0 82 28l9 -14q-21 -24 -48.5 -34.5
t-74.5 -10.5q-52 0 -68 25.5t-16 100.5v226l-54 -1q-14 0 -14 8q0 7 13 13q43 18 62.5 41.5t42.5 84.5z" />
    <glyph glyph-name="Tbar" unicode="&#x166;" horiz-adv-x="615" vert-adv-y="1301" 
d="M275 337v258h-123q-33 1 -54 -15t-61 -73q-18 -26 -26 -26q-5 0 -5 11t5 32l31 122q6 26 15 26q7 0 19 -22q9 -18 17 -21.5t31 -3.5h387q36 0 47 5.5t21 28.5q6 14 15 14q13 0 13 -20l-2 -158q0 -16 -8 -16q-11 0 -18 29q-11 49 -27 68t-69 19h-125v-258h229
q-3 -7 -3 -12t3 -14h-229v-231q0 -27 6.5 -36t27.5 -14l78 -17v-16q-53 3 -156 3q-132 0 -156 -3v16l70 14q29 6 38 17.5t9 36.5v230h-223q-3 7 -3 14t3 12h223z" />
    <glyph glyph-name="tbar" unicode="&#x167;" horiz-adv-x="292" vert-adv-y="1301" 
d="M93 231v105l-54 -1q-14 0 -14 8q0 7 13 13q43 18 62.5 41.5t42.5 84.5h12l1 -107l136 3v-36l-136 -4v-107h135q-2 -7 -2 -14t2 -16h-135v-101q0 -45 12.5 -65t40.5 -20q34 0 82 28l9 -14q-21 -24 -48.5 -34.5t-74.5 -10.5q-52 0 -68 25.5t-16 100.5v91h-68q-3 7 -3 16
t3 14h68z" />
    <glyph glyph-name="Utilde" unicode="&#x168;" horiz-adv-x="708" vert-adv-y="1301" 
d="M503 774h15q0 -48 -21.5 -74t-58.5 -26q-34 0 -78 31q-39 28 -63 28q-35 0 -44 -58h-14q0 45 22 72t58 27q21 0 36.5 -7t40.5 -24q41 -28 65 -28q34 0 42 59zM288 628v-16l-63 -8q-18 -2 -25.5 -13.5t-7.5 -36.5v-357q0 -96 40 -138.5t131 -42.5q122 0 164.5 56.5
t42.5 203.5v277q0 40 -41 48l-59 11v16q24 -3 102 -3t103 3v-16l-58 -13q-22 -4 -22 -46v-303q0 -140 -52 -203t-177 -63q-122 0 -187.5 51t-65.5 147v375q0 24 -5 34.5t-19 12.5l-71 8v16q66 -3 135 -3q99 0 135 3z" />
    <glyph glyph-name="utilde" unicode="&#x169;" horiz-adv-x="490" vert-adv-y="1301" 
d="M391 604h15q0 -48 -21.5 -74t-58.5 -26q-34 0 -78 31q-39 28 -63 28q-35 0 -44 -58h-14q0 45 22 72t58 27q21 0 36.5 -7t40.5 -24q41 -28 65 -28q34 0 42 59zM16 381h128v-258q0 -48 16.5 -68t62.5 -20q68 0 125 51v241q0 19 -15 25.5t-77 12.5v16h157v-294
q0 -34 10.5 -41.5t59.5 -9.5l1 -15l-136 -36v76q-44 -38 -80 -57.5t-72 -19.5q-50 0 -82.5 37t-32.5 98v209q0 18 -10.5 24.5t-54.5 14.5v14z" />
    <glyph glyph-name="Umacron" unicode="&#x16a;" horiz-adv-x="708" vert-adv-y="1301" 
d="M513 730h-262v44h262v-44zM288 628v-16l-63 -8q-18 -2 -25.5 -13.5t-7.5 -36.5v-357q0 -96 40 -138.5t131 -42.5q122 0 164.5 56.5t42.5 203.5v277q0 40 -41 48l-59 11v16q24 -3 102 -3t103 3v-16l-58 -13q-22 -4 -22 -46v-303q0 -140 -52 -203t-177 -63
q-122 0 -187.5 51t-65.5 147v375q0 24 -5 34.5t-19 12.5l-71 8v16q66 -3 135 -3q99 0 135 3z" />
    <glyph glyph-name="glyph365" horiz-adv-x="490" vert-adv-y="1301" 
d="M394 533h-262v44h262v-44zM16 381h128v-258q0 -48 16.5 -68t62.5 -20q68 0 125 51v241q0 19 -15 25.5t-77 12.5v16h157v-294q0 -34 10.5 -41.5t59.5 -9.5l1 -15l-136 -36v76q-44 -38 -80 -57.5t-72 -19.5q-50 0 -82.5 37t-32.5 98v209q0 18 -10.5 24.5t-54.5 14.5v14z
" />
    <glyph glyph-name="Ubreve" unicode="&#x16c;" horiz-adv-x="708" vert-adv-y="1301" 
d="M491 828q0 -56 -34.5 -96.5t-85.5 -40.5q-48 0 -83.5 41t-35.5 96h13q17 -82 107 -82q89 0 106 82h13zM288 628v-16l-63 -8q-18 -2 -25.5 -13.5t-7.5 -36.5v-357q0 -96 40 -138.5t131 -42.5q122 0 164.5 56.5t42.5 203.5v277q0 40 -41 48l-59 11v16q24 -3 102 -3t103 3
v-16l-58 -13q-22 -4 -22 -46v-303q0 -140 -52 -203t-177 -63q-122 0 -187.5 51t-65.5 147v375q0 24 -5 34.5t-19 12.5l-71 8v16q66 -3 135 -3q99 0 135 3z" />
    <glyph glyph-name="ubreve" unicode="&#x16d;" horiz-adv-x="490" vert-adv-y="1301" 
d="M378 602q0 -56 -34.5 -96.5t-85.5 -40.5q-48 0 -83.5 41t-35.5 96h13q17 -82 107 -82q89 0 106 82h13zM16 381h128v-258q0 -48 16.5 -68t62.5 -20q68 0 125 51v241q0 19 -15 25.5t-77 12.5v16h157v-294q0 -34 10.5 -41.5t59.5 -9.5l1 -15l-136 -36v76q-44 -38 -80 -57.5
t-72 -19.5q-50 0 -82.5 37t-32.5 98v209q0 18 -10.5 24.5t-54.5 14.5v14z" />
    <glyph glyph-name="Uring" unicode="&#x16e;" horiz-adv-x="708" vert-adv-y="1301" 
d="M385 692q-33 0 -56.5 23.5t-23.5 56.5t23.5 57t56.5 24t56.5 -23.5t23.5 -57.5q0 -33 -23.5 -56.5t-56.5 -23.5zM327 773q0 -25 17 -42t41 -17t41 17t17 41t-17 41.5t-41 17.5t-41 -17t-17 -41zM288 628v-16l-63 -8q-18 -2 -25.5 -13.5t-7.5 -36.5v-357q0 -96 40 -138.5
t131 -42.5q122 0 164.5 56.5t42.5 203.5v277q0 40 -41 48l-59 11v16q24 -3 102 -3t103 3v-16l-58 -13q-22 -4 -22 -46v-303q0 -140 -52 -203t-177 -63q-122 0 -187.5 51t-65.5 147v375q0 24 -5 34.5t-19 12.5l-71 8v16q66 -3 135 -3q99 0 135 3z" />
    <glyph glyph-name="uring" unicode="&#x16f;" horiz-adv-x="490" vert-adv-y="1301" 
d="M250 454q-33 0 -56.5 23.5t-23.5 56.5t23.5 57t56.5 24q34 0 57.5 -23.5t23.5 -56.5q0 -34 -24 -57.5t-57 -23.5zM192 535q0 -24 17 -41.5t41 -17.5t41.5 17t17.5 42q0 24 -17.5 41t-41.5 17q-23 0 -40.5 -17.5t-17.5 -40.5zM16 381h128v-258q0 -48 16.5 -68t62.5 -20
q68 0 125 51v241q0 19 -15 25.5t-77 12.5v16h157v-294q0 -34 10.5 -41.5t59.5 -9.5l1 -15l-136 -36v76q-44 -38 -80 -57.5t-72 -19.5q-50 0 -82.5 37t-32.5 98v209q0 18 -10.5 24.5t-54.5 14.5v14z" />
    <glyph glyph-name="Uhungarumlaut" unicode="&#x170;" horiz-adv-x="708" vert-adv-y="1301" 
d="M272 692l60 87q43 63 77 63q12 0 20.5 -7.5t8.5 -16.5q0 -23 -72 -71l-90 -60zM397 692l60 87q43 63 77 63q12 0 20.5 -7.5t8.5 -16.5q0 -23 -72 -71l-90 -60zM288 628v-16l-63 -8q-18 -2 -25.5 -13.5t-7.5 -36.5v-357q0 -96 40 -138.5t131 -42.5q122 0 164.5 56.5
t42.5 203.5v277q0 40 -41 48l-59 11v16q24 -3 102 -3t103 3v-16l-58 -13q-22 -4 -22 -46v-303q0 -140 -52 -203t-177 -63q-122 0 -187.5 51t-65.5 147v375q0 24 -5 34.5t-19 12.5l-71 8v16q66 -3 135 -3q99 0 135 3z" />
    <glyph glyph-name="uhungarumlaut" unicode="&#x171;" horiz-adv-x="490" vert-adv-y="1301" 
d="M126 481l60 87q43 63 77 63q12 0 20.5 -7.5t8.5 -16.5q0 -23 -72 -71l-90 -60zM250 481l60 87q43 63 77 63q12 0 20.5 -7.5t8.5 -16.5q0 -23 -72 -71l-90 -60zM16 381h128v-258q0 -48 16.5 -68t62.5 -20q68 0 125 51v241q0 19 -15 25.5t-77 12.5v16h157v-294
q0 -34 10.5 -41.5t59.5 -9.5l1 -15l-136 -36v76q-44 -38 -80 -57.5t-72 -19.5q-50 0 -82.5 37t-32.5 98v209q0 18 -10.5 24.5t-54.5 14.5v14z" />
    <glyph glyph-name="Uogonek" unicode="&#x172;" horiz-adv-x="708" vert-adv-y="1301" 
d="M395 -15q-8 -1 -29 -1q-122 0 -187.5 51t-65.5 147v375q0 24 -5 34.5t-19 12.5l-71 8v16q66 -3 135 -3q99 0 135 3v-16l-63 -8q-18 -2 -25.5 -13.5t-7.5 -36.5v-357q0 -96 40 -138.5t131 -42.5q122 0 164.5 56.5t42.5 203.5v277q0 40 -41 48l-59 11v16q24 -3 102 -3
t103 3v-16l-58 -13q-22 -4 -22 -46v-303q0 -123 -39.5 -185t-123.5 -76q-9 -21 -9 -39q0 -33 29.5 -60.5t65.5 -27.5q35 0 67 27l13 -13q-52 -54 -116 -54q-44 0 -77 27.5t-33 66.5q0 32 23 69z" />
    <glyph glyph-name="uogonek" unicode="&#x173;" horiz-adv-x="490" vert-adv-y="1301" 
d="M348 -4v65q-44 -38 -80 -57.5t-72 -19.5q-50 0 -82.5 37t-32.5 98v209q0 18 -10.5 24.5t-54.5 14.5v14h128v-258q0 -48 16.5 -68t62.5 -20q68 0 125 51v241q0 19 -15 25.5t-77 12.5v16h157v-294q0 -34 10.5 -41.5t59.5 -9.5l1 -15l-110 -29q-9 -18 -9 -36q0 -32 27.5 -56
t57.5 -24t62 23l11 -10q-50 -50 -106 -50q-40 0 -69 26t-29 62q0 35 29 69z" />
    <glyph glyph-name="Wcircumflex" unicode="&#x174;" horiz-adv-x="885" vert-adv-y="1301" 
d="M590 688l-107 111l-107 -111v15l93 158h28l93 -158v-15zM495 351l122 -270l161 412q21 54 21 79q0 27 -25 32l-41 8v16q10 -3 78 -3q65 0 81 3v-16l-30 -9q-15 -5 -23 -14t-16 -31l-217 -580h-21l-131 287l-139 -287h-21l-223 553q-19 46 -27.5 58t-23.5 16l-29 7v16
q25 -3 98 -3q64 0 100 3v-16l-47 -9q-8 -1 -8 -9q0 -13 22 -68l181 -456l104 223l-104 239q-20 44 -29 56.5t-22 14.5l-49 9v16q28 -3 156 -3q50 0 72 3v-16l-58 -11q-9 -1 -9 -10q0 -11 22 -64l61 -145l79 176q5 10 5 20q0 12 -7.5 19.5t-15.5 8.5l-34 6v16q25 -3 91 -3
q72 0 91 3v-16l-47 -9q-34 -7 -52 -46z" />
    <glyph glyph-name="wcircumflex" unicode="&#x175;" horiz-adv-x="667" vert-adv-y="1301" 
d="M452 477l-107 111l-107 -111v15l93 158h28l93 -158v-15zM-10 384q22 -3 99 -3q66 0 96 3v-16l-40 -6q-19 -4 -19 -19q0 -9 5 -20l130 -272l80 162l-39 103q-11 28 -18.5 35.5t-15.5 8.5l-42 8v16q28 -3 107 -3q85 0 110 3v-16l-49 -9q-30 -7 -30 -23q0 -7 5 -20l98 -257
l102 239q6 13 6 25q0 16 -11 26t-24 12l-41 7v16q22 -3 87 -3q60 0 88 3v-16l-25 -5q-30 -9 -51 -56l-144 -330h-16l-85 206l-105 -206h-20l-177 358q-13 27 -38 30l-23 3v16z" />
    <glyph glyph-name="Ycircumflex" unicode="&#x176;" horiz-adv-x="656" vert-adv-y="1301" 
d="M454 686l-107 111l-107 -111v15l93 158h28l93 -158v-15zM409 26l75 -11v-18q-115 3 -152 3q-84 0 -150 -3v16l75 12q17 3 28 12.5t11 21.5v167q0 23 -18 50l-178 267q-40 60 -64 63l-44 6v16q20 -3 135 -3q93 0 134 3v-16l-63 -9q-27 -4 -27 -19q0 -5 4 -11l180 -276
l172 248q15 22 15 35q0 18 -25 22l-64 10v16q9 -3 106 -3q82 0 105 4v-16l-34 -8q-30 -4 -85 -81l-161 -226q-8 -11 -11 -26t-3 -47v-164q0 -29 39 -35z" />
    <glyph glyph-name="ycircumflex" unicode="&#x177;" horiz-adv-x="417" vert-adv-y="1301" 
d="M336 477l-107 111l-107 -111v15l93 158h28l93 -158v-15zM3 386q63 -5 100 -5q59 0 101 5v-16l-61 -12q-15 -3 -15 -14q0 -4 3 -13l101 -285l93 258q5 13 5 24q0 24 -18 28l-56 14v16q45 -5 85 -5q35 0 85 5v-16l-32 -9q-14 -4 -24 -16.5t-24 -50.5l-169 -446
q-17 -47 -42 -71t-53 -24q-43 0 -43 32q0 36 37 36q13 0 31 -4q8 -2 13 -2q8 0 13.5 5t22.5 34.5t29.5 64.5t12.5 46q0 17 -10 43l-122 323q-8 23 -26 28l-37 11v16z" />
    <glyph glyph-name="Zacute" unicode="&#x179;" horiz-adv-x="656" vert-adv-y="1301" 
d="M286 689l60 87q43 63 77 63q12 0 20.5 -7.5t8.5 -16.5q0 -23 -72 -71l-90 -60zM609 176l-4 -179q-141 3 -228 3q-213 0 -339 -4v10l444 595l-275 -5q-40 -2 -60.5 -9t-40 -28.5t-53.5 -72.5h-10l59 183h17q-4 -15 -4 -23q0 -18 21 -22.5t89 -3.5l357 5v-20l-437 -580h191
q109 0 155.5 9t70.5 47.5t31 94.5h16z" />
    <glyph glyph-name="zacute" unicode="&#x17a;" horiz-adv-x="427" vert-adv-y="1301" 
d="M160 480l60 87q43 63 77 63q12 0 20.5 -7.5t8.5 -16.5q0 -23 -72 -71l-90 -60zM390 122l-22 -125q-90 3 -171 3q-119 0 -172 -3v14l286 346l-138 -4q-42 -1 -66.5 -16t-53.5 -61h-12l50 154h19q-5 -17 -5 -28q0 -14 10 -20t49 -5l224 4v-21l-269 -336h75q70 0 98 5t45 24
t36 69h17z" />
    <glyph glyph-name="Zdotaccent" unicode="&#x17b;" horiz-adv-x="656" vert-adv-y="1301" 
d="M304 726q0 17 12.5 29.5t29.5 12.5t29.5 -12.5t12.5 -29.5t-12.5 -29.5t-29.5 -12.5t-29.5 12.5t-12.5 29.5zM609 176l-4 -179q-141 3 -228 3q-213 0 -339 -4v10l444 595l-275 -5q-40 -2 -60.5 -9t-40 -28.5t-53.5 -72.5h-10l59 183h17q-4 -15 -4 -23q0 -18 21 -22.5
t89 -3.5l357 5v-20l-437 -580h191q109 0 155.5 9t70.5 47.5t31 94.5h16z" />
    <glyph glyph-name="zdotaccent" unicode="&#x17c;" horiz-adv-x="427" vert-adv-y="1301" 
d="M189 558q0 17 12.5 29.5t29.5 12.5t29.5 -12.5t12.5 -29.5t-12.5 -29.5t-29.5 -12.5t-29.5 12.5t-12.5 29.5zM390 122l-22 -125q-90 3 -171 3q-119 0 -172 -3v14l286 346l-138 -4q-42 -1 -66.5 -16t-53.5 -61h-12l50 154h19q-5 -17 -5 -28q0 -14 10 -20t49 -5l224 4v-21
l-269 -336h75q70 0 98 5t45 24t36 69h17z" />
    <glyph glyph-name="longs" unicode="&#x17f;" horiz-adv-x="312" vert-adv-y="1301" 
d="M38 14l52 11q11 2 15.5 11t4.5 35v321q0 125 56 196.5t145 71.5q83 0 83 -42q0 -33 -37 -33q-17 0 -39 9q-41 17 -69 17q-79 0 -79 -135v-379q0 -61 35 -68l78 -15v-19q-44 5 -122 5q-79 0 -123 -5v19z" />
    <glyph glyph-name="Aringacute" unicode="&#x1fa;" horiz-adv-x="677" vert-adv-y="1301" 
d="M273 836l60 87q43 63 77 63q12 0 20.5 -7.5t8.5 -16.5q0 -23 -72 -71l-90 -60zM362 638l216 -575q7 -17 13 -23t22 -11l55 -17v-16q-45 4 -131 4t-131 -4v20l66 6q34 3 34 19q0 7 -5 20l-81 220h-197l-80 -229q-3 -9 -3 -15q0 -15 31 -18l70 -6v-15q-19 2 -123 2t-123 -2
v16l63 5q15 1 27.5 11.5t18.5 25.5l218 581q-29 7 -46 29t-17 49q0 33 23.5 56.5t56.5 23.5t56.5 -23.5t23.5 -56.5q0 -25 -15.5 -46.5t-41.5 -30.5zM281 716q0 -25 17 -42t41 -17t41 17t17 41t-17 41t-41 17q-23 0 -40.5 -17t-17.5 -40zM412 303l-93 253l-88 -253h181z" />
    <glyph glyph-name="aringacute" unicode="&#x1fb;" horiz-adv-x="406" vert-adv-y="1301" 
d="M179 665l60 87q43 63 77 63q12 0 20.5 -7.5t8.5 -16.5q0 -23 -72 -71l-90 -60zM196 454q-33 0 -56.5 23.5t-23.5 56.5t23.5 57t57.5 24q33 0 56.5 -23.5t23.5 -56.5q0 -34 -24 -57.5t-57 -23.5zM138 535q0 -24 17 -41.5t41 -17.5t41.5 17t17.5 42q0 23 -17.5 40.5
t-40.5 17.5q-24 0 -41.5 -17.5t-17.5 -40.5zM399 63l13 -7q-29 -72 -80 -72q-31 0 -48.5 17.5t-17.5 50.5q-55 -42 -81.5 -55t-66.5 -13q-65 0 -65 53q0 47 57.5 100t157.5 90v68q0 32 -18 52.5t-48 20.5q-35 0 -60 -23.5t-30 -65.5q-2 -17 -16.5 -29t-30.5 -12
q-7 0 -14.5 3.5t-7.5 11.5q0 14 26 57t65 66t76 23q62 0 90 -24.5t28 -78.5v-203q0 -23 1.5 -35.5t10.5 -19t18 -6.5q22 0 41 31zM268 102v103q-64 -25 -105 -66t-41 -75q0 -19 12.5 -31.5t31.5 -12.5q27 0 64.5 27.5t37.5 54.5z" />
    <glyph glyph-name="AEacute" unicode="&#x1fc;" horiz-adv-x="854" vert-adv-y="1301" 
d="M438 690l60 87q43 63 77 63q12 0 20.5 -7.5t8.5 -16.5q0 -23 -72 -71l-90 -60zM317 604l-101 5v19q52 -3 275 -3q240 0 276 3q-3 -31 -3 -77q0 -35 2 -67h-15q-39 95 -51.5 107.5t-31.5 12.5h-174q-17 0 -23 -9.5t-6 -32.5v-228h161q19 0 27 6.5t12 24.5l15 62h18
q-6 -108 -6 -178q0 -22 1 -47h-12l-16 71q-5 20 -18 29t-44 9h-138v-250q0 -22 8 -30.5t34 -8.5h164q42 0 72 29.5t70 119.5h20q-22 -88 -26 -176q-96 5 -258 5q-171 0 -286 -5v19l90 7q20 2 25 8.5t5 24.5v257h-188l-114 -255q-4 -10 -4 -16q0 -13 30 -18l78 -12l-1 -16
q-69 6 -126 6q-30 0 -119 -4v14l43 5q40 5 59 42zM383 334v222q0 32 -8 40.5t-30 6.5l-137 -269h175z" />
    <glyph glyph-name="aeacute" unicode="&#x1fd;" horiz-adv-x="583" vert-adv-y="1301" 
d="M262 482l60 87q43 63 77 63q12 0 20.5 -7.5t8.5 -16.5q0 -23 -72 -71l-90 -60zM309 345q25 25 57.5 39.5t60.5 14.5q59 0 99 -40t40 -100h-246q-3 -43 -3 -71q0 -56 13.5 -86t42 -49.5t69.5 -19.5q65 0 124 60l7 -25q-38 -44 -79 -64t-99 -20q-72 0 -133 82
q-91 -82 -147 -82q-27 0 -45 18t-18 45q0 42 44 84t162 95v66q0 37 -18 59.5t-50 22.5q-29 0 -49.5 -26.5t-29.5 -75.5q-3 -18 -16.5 -29.5t-28.5 -11.5q-20 0 -20 18q0 20 26.5 63.5t62 65t72.5 21.5q60 0 102 -54zM323 282h148q12 0 20 6.5t8 15.5q0 28 -24 50.5t-53 22.5
q-37 0 -66.5 -27t-32.5 -68zM256 97v105q-139 -62 -139 -124q0 -20 15 -34t33 -14q40 0 91 67z" />
    <glyph glyph-name="Oslashacute" unicode="&#x1fe;" horiz-adv-x="781" vert-adv-y="1301" 
d="M385 693l60 87q43 63 77 63q12 0 20.5 -7.5t8.5 -16.5q0 -23 -72 -71l-90 -60zM622 559q111 -98 111 -241q0 -77 -18.5 -127t-66.5 -102t-110 -78.5t-149 -26.5q-119 0 -199 57l-60 -71l-20 16l58 70q-58 46 -90 113.5t-32 142.5q0 65 26.5 126t73 105t102 68t155.5 24
q55 0 100.5 -14.5t96.5 -46.5l66 78l20 -17zM570 538q-71 79 -180 79q-79 0 -138 -41.5t-88 -117t-29 -143.5q0 -107 70 -215zM587 517l-365 -438q69 -77 163 -77q132 0 196 85t64 225q0 127 -58 205z" />
    <glyph glyph-name="oslashacute" unicode="&#x1ff;" horiz-adv-x="510" vert-adv-y="1301" 
d="M210 479l60 87q43 63 77 63q12 0 20.5 -7.5t8.5 -16.5q0 -23 -72 -71l-90 -60zM403 348q71 -64 71 -161q0 -83 -64.5 -143t-161.5 -60q-71 0 -125 40l-41 -48l-14 11l39 48q-71 62 -71 160q0 88 62.5 146t161.5 58q73 0 127 -38l44 51l14 -14zM137 72l222 256
q-37 52 -103 52q-70 0 -107.5 -49.5t-37.5 -145.5q0 -68 26 -113zM371 311l-223 -256q38 -52 103 -52q64 0 105.5 51.5t41.5 136.5q0 69 -27 120z" />
    <glyph glyph-name="tonos" unicode="&#x384;" horiz-adv-x="333" vert-adv-y="1301" 
d="M169 458l-17 71q-12 50 -12 75q0 20 8 29t30 9t30.5 -8.5t8.5 -28.5q0 -24 -13 -77l-17 -70h-18z" />
    <glyph glyph-name="dieresistonos" unicode="&#x385;" horiz-adv-x="333" vert-adv-y="1301" 
d="M159 458l-18 71q-12 48 -12 73q0 21 8.5 30.5t29.5 9.5q24 0 32 -8.5t8 -26.5q0 -23 -14 -79l-17 -70h-17zM238 553q0 17 11 28t27 11q15 0 26.5 -10.5t11.5 -27.5q0 -16 -11.5 -27t-26.5 -11q-17 0 -27.5 11t-10.5 26zM20 553q0 17 11 28t26 11q16 0 27 -11t11 -27
t-10.5 -27t-26.5 -11t-27 11t-11 26z" />
    <glyph glyph-name="Alphatonos" unicode="&#x386;" horiz-adv-x="677" vert-adv-y="1301" 
d="M224 284l-80 -232q-3 -10 -3 -16q0 -8 6 -12t25 -5l70 -5v-16q-19 2 -123 2t-123 -2v16l63 5q33 3 46 37l224 604h29l221 -597q7 -17 13 -23t22 -11l55 -17v-15q-51 3 -131 3t-131 -3v15l66 10q19 3 26.5 7t7.5 12q0 6 -5 20l-81 223h-197zM413 306l-93 258l-88 -258h181
zM86 446l-17 71q-12 50 -12 75q0 20 8 29t30 9t30.5 -8.5t8.5 -28.5q0 -24 -13 -77l-17 -70h-18z" />
    <glyph glyph-name="anoteleia" unicode="&#x387;" horiz-adv-x="219" vert-adv-y="1301" 
d="M53 332q0 23 16.5 39.5t39.5 16.5t39.5 -16.5t16.5 -39.5t-16.5 -39t-39.5 -16t-39.5 16t-16.5 39z" />
    <glyph glyph-name="Epsilontonos" unicode="&#x388;" horiz-adv-x="721" vert-adv-y="1301" 
d="M18 446l-17 71q-12 50 -12 75q0 20 7.5 29t25.5 9q21 0 32.5 -7.5t11.5 -30.5t-13 -76l-17 -70h-18zM708 162q-22 -92 -25 -165q-124 3 -292 3t-292 -3v17l72 5q17 1 23.5 7t6.5 28v503q0 24 -5.5 34.5t-19.5 11.5l-73 7v18q81 -3 269 -3q190 0 269 3q-3 -31 -3 -74
q0 -33 2 -65h-13q-22 55 -34 78.5t-22 30.5t-27 7h-232q-17 0 -23 -9.5t-6 -32.5v-230h225q17 0 25 5.5t12 24.5l13 70h20q-3 -59 -3 -120q0 -60 3 -120h-12l-22 78q-7 22 -20 30.5t-39 8.5h-202v-249q0 -22 8 -30.5t34 -8.5h222q30 0 50.5 9.5t42 39.5t48.5 91h20z" />
    <glyph glyph-name="Etatonos" unicode="&#x389;" horiz-adv-x="806" vert-adv-y="1301" 
d="M18 445l-17 71q-12 50 -12 75q0 20 7.5 29t25.5 9q21 0 32.5 -7.5t11.5 -30.5t-13 -76l-17 -70h-18zM620 568q0 20 -5 28.5t-17 9.5l-53 6v16q38 -4 169 -4q40 0 76 4v-16l-71 -10q-13 -2 -17 -9t-4 -26v-499q0 -21 4.5 -30t22.5 -12l77 -14v-16q-50 4 -153 4
q-58 0 -111 -4v16l62 10q12 2 16 12t4 34v231h-359v-231q0 -25 4 -34.5t17 -11.5l62 -10v-16q-53 4 -111 4q-103 0 -153 -4v16l77 14q16 3 21 12t5 30v500q0 20 -5 28.5t-17 9.5l-53 6v16q38 -4 171 -4q43 0 79 4v-16l-76 -10q-13 -2 -17 -9t-4 -26v-239h359v240z" />
    <glyph glyph-name="Iotatonos" unicode="&#x38a;" horiz-adv-x="427" vert-adv-y="1301" 
d="M18 445l-17 71q-12 50 -12 75q0 20 7.5 29t25.5 9q21 0 32.5 -7.5t11.5 -30.5t-13 -76l-17 -70h-18zM224 54v517q0 17 -5.5 24t-19.5 8l-88 9v16q11 -3 210 -3q59 0 94 3v-17l-88 -9q-14 -1 -19.5 -7t-5.5 -24v-517q0 -17 5 -22.5t20 -6.5l88 -5v-24q-40 4 -152 4
t-152 -4v24l88 5q15 2 20 7t5 22z" />
    <glyph glyph-name="Omicrontonos" unicode="&#x38c;" horiz-adv-x="781" vert-adv-y="1301" 
d="M401 -16q-153 0 -248 91t-95 231q0 136 97 232.5t260 96.5q138 0 234 -92.5t96 -230.5q0 -147 -95 -237.5t-249 -90.5zM148 299q0 -119 71.5 -208t177.5 -89q127 0 193.5 78t66.5 226q0 138 -70.5 224t-185.5 86q-82 0 -140.5 -44t-85.5 -119.5t-27 -153.5zM18 445
l-17 71q-12 50 -12 75q0 20 7.5 29t25.5 9q21 0 32.5 -7.5t11.5 -30.5t-13 -76l-17 -70h-18z" />
    <glyph glyph-name="Upsilontonos" unicode="&#x38e;" horiz-adv-x="670" vert-adv-y="1301" 
d="M111 576l-9 12q32 47 78 47q69 0 133.5 -112t82.5 -251q24 175 91 269t126 94q23 0 41.5 -18t18.5 -38q0 -17 -12.5 -33.5t-32.5 -16.5q-15 0 -29 10t-21 27t-18 17q-19 0 -55.5 -50.5t-65.5 -147t-29 -158.5v-139q0 -35 9 -46.5t45 -16.5l62 -8l-4 -20q-42 3 -150 3
l-150 -2l-1 15l65 12q33 6 42 16t9 44v93q0 78 -13.5 148t-38 126t-52 92.5t-42 47t-31.5 10.5q-26 0 -49 -26zM20 446l-17 71q-12 50 -12 75q0 20 8 29t30 9t30.5 -8.5t8.5 -28.5q0 -24 -13 -77l-17 -70h-18z" />
    <glyph glyph-name="Omegatonos" unicode="&#x38f;" horiz-adv-x="781" vert-adv-y="1301" 
d="M356 145l18 -145h-305v173l12 3q8 -52 23 -76.5t39.5 -32t70.5 -7.5h114l-12 74q-231 65 -231 243q0 117 88 187.5t233 70.5q144 0 232 -70.5t88 -182.5q0 -93 -62.5 -160t-168.5 -88l-12 -74h135q37 0 57 8t32.5 32.5t19.5 74.5h15v-175h-305l18 145q182 32 182 236
q0 108 -64 172t-167 64q-106 0 -169 -65t-63 -179q0 -181 182 -228zM19 446l-17 71q-12 50 -12 75q0 20 7.5 29t25.5 9q21 0 32.5 -7.5t11.5 -30.5t-13 -76l-17 -70h-18z" />
    <glyph glyph-name="iotadieresistonos" unicode="&#x390;" horiz-adv-x="229" vert-adv-y="1301" 
d="M89 458l-18 71q-12 48 -12 73q0 21 8.5 30.5t29.5 9.5q24 0 32 -8.5t8 -26.5q0 -23 -14 -79l-17 -70h-17zM168 553q0 17 11 28t27 11q15 0 26.5 -10.5t11.5 -27.5q0 -16 -11.5 -27t-26.5 -11q-17 0 -27.5 11t-10.5 26zM-49 553q0 17 11 28t26 11q16 0 27 -11t11 -27
t-10.5 -27t-26.5 -11t-27 11t-11 26zM190 76l10 -6q-12 -35 -28.5 -60.5t-44.5 -25.5q-26 0 -44.5 22t-23 65t-4.5 257q0 45 5.5 54.5t31.5 9.5q29 0 36 -4.5t7 -17.5q0 -9 -12 -78.5t-26 -121.5q-14 -51 -14 -77q0 -28 16 -40.5t31 -12.5q24 0 60 36z" />
    <glyph glyph-name="Alpha" unicode="&#x391;" horiz-adv-x="677" vert-adv-y="1301" 
d="M224 284l-80 -232q-3 -10 -3 -16q0 -8 6 -12t25 -5l70 -5v-16q-19 2 -123 2t-123 -2v16l63 5q33 3 46 37l224 604h29l221 -597q7 -17 13 -23t22 -11l55 -17v-15q-51 3 -131 3t-131 -3v15l66 10q19 3 26.5 7t7.5 12q0 6 -5 20l-81 223h-197zM413 306l-93 258l-88 -258h181
z" />
    <glyph glyph-name="Beta" unicode="&#x392;" horiz-adv-x="615" vert-adv-y="1301" 
d="M13 605v17l59 3q188 10 220 10q112 0 171 -38.5t59 -110.5q0 -76 -108 -124q154 -42 154 -173q0 -54 -35 -99.5t-95.5 -68t-133.5 -22.5l-208 1h-71v16l63 12q19 4 27 14.5t8 39.5v484q0 16 -5.5 23t-39.5 10zM205 356q17 -3 78 -3q71 0 113.5 38.5t42.5 103.5
q0 55 -41 85.5t-118 30.5q-39 0 -75 -9v-246zM205 326v-224q0 -76 117 -76q64 0 112 44.5t48 102.5q0 80 -49.5 118.5t-151.5 38.5q-35 0 -76 -4z" />
    <glyph glyph-name="Gamma" unicode="&#x393;" horiz-adv-x="573" vert-adv-y="1301" 
d="M5 628q137 -3 255 -3q123 0 287 3l28 -166h-16q-49 85 -79 111.5t-74 26.5h-144q-40 0 -48.5 -8.5t-8.5 -38.5v-484q0 -22 6.5 -33.5t32.5 -12.5l76 -4l3 -22q-79 3 -150 3q-63 0 -152 -3v16l59 11q31 5 36 16t5 35v475q0 33 -19 43t-95 20z" />
    <glyph glyph-name="Delta" unicode="&#x394;" horiz-adv-x="625" vert-adv-y="1301" 
d="M310 655h31l285 -640q3 -6 3 -9q0 -6 -15 -6h-598q-8 0 -8 6q0 3 3 8zM302 559l-194 -454q-7 -15 -7 -23q0 -13 23 -13h341q34 0 34 18q0 6 -4 16z" />
    <glyph glyph-name="Epsilon" unicode="&#x395;" horiz-adv-x="656" vert-adv-y="1301" 
d="M633 162q-22 -92 -25 -165q-124 3 -292 3t-292 -3v17l72 5q17 1 23.5 7t6.5 28v503q0 24 -5.5 34.5t-19.5 11.5l-73 7v18q81 -3 269 -3q190 0 269 3q-3 -31 -3 -74q0 -33 2 -65h-13q-22 55 -34 78.5t-22 30.5t-27 7h-232q-17 0 -23 -9.5t-6 -32.5v-230h225q17 0 25 5.5
t12 24.5l13 70h20q-3 -59 -3 -120q0 -60 3 -120h-12l-22 78q-7 22 -20 30.5t-39 8.5h-202v-249q0 -22 8 -30.5t34 -8.5h222q30 0 50.5 9.5t42 39.5t48.5 91h20z" />
    <glyph glyph-name="Zeta" unicode="&#x396;" horiz-adv-x="656" vert-adv-y="1301" 
d="M609 176l-4 -179q-141 3 -228 3q-213 0 -339 -4v10l444 595l-275 -5q-40 -2 -60.5 -9t-40 -28.5t-53.5 -72.5h-10l59 183h17q-4 -15 -4 -23q0 -18 21 -22.5t89 -3.5l357 5v-20l-437 -580h191q109 0 155.5 9t70.5 47.5t31 94.5h16z" />
    <glyph glyph-name="Eta" unicode="&#x397;" horiz-adv-x="760" vert-adv-y="1301" 
d="M560 568q0 20 -5 28.5t-17 9.5l-53 6v16q38 -4 169 -4q40 0 76 4v-16l-71 -10q-13 -2 -17 -9t-4 -26v-499q0 -21 4.5 -30t22.5 -12l77 -14v-16q-50 4 -153 4q-58 0 -111 -4v16l62 10q12 2 16 12t4 34v231h-359v-231q0 -25 4 -34.5t17 -11.5l62 -10v-16q-53 4 -111 4
q-103 0 -153 -4v16l77 14q16 3 21 12t5 30v500q0 20 -5 28.5t-17 9.5l-53 6v16q38 -4 171 -4q43 0 79 4v-16l-76 -10q-13 -2 -17 -9t-4 -26v-239h359v240z" />
    <glyph glyph-name="Theta" unicode="&#x398;" horiz-adv-x="781" vert-adv-y="1301" 
d="M389 -16q-153 0 -248 91t-95 231q0 136 97 232.5t260 96.5q138 0 234 -92.5t96 -230.5q0 -147 -95 -237.5t-249 -90.5zM136 299q0 -119 71.5 -208t177.5 -89q127 0 193.5 78t66.5 226q0 138 -70.5 224t-185.5 86q-82 0 -140.5 -44t-85.5 -119.5t-27 -153.5zM232 436l19 2
l13 -51q6 -21 18 -25.5t48 -4.5h125q33 0 43.5 4.5t14.5 19.5l15 58l19 -3q-3 -74 -3 -119l2 -121l-13 -1l-27 73q-6 15 -19 19.5t-40 4.5h-117q-28 0 -41 -5.5t-20 -25.5l-25 -67l-12 3q2 86 2 125q0 59 -2 114z" />
    <glyph glyph-name="Iota" unicode="&#x399;" horiz-adv-x="354" vert-adv-y="1301" 
d="M139 54v517q0 17 -5.5 24t-19.5 8l-88 9v16q11 -3 210 -3q59 0 94 3v-17l-88 -9q-14 -1 -19.5 -7t-5.5 -24v-517q0 -17 5 -22.5t20 -6.5l88 -5v-24q-40 4 -152 4t-152 -4v24l88 5q15 2 20 7t5 22z" />
    <glyph glyph-name="Kappa" unicode="&#x39a;" horiz-adv-x="740" vert-adv-y="1301" 
d="M292 -4q-38 4 -129 4t-129 -4v16l63 9q14 2 19.5 9t5.5 24v520q0 17 -4.5 22t-20.5 7l-63 9v16q12 -3 181 -3q42 0 77 3v-16l-67 -9q-15 -1 -20 -6.5t-5 -22.5v-520q0 -16 5.5 -22.5t19.5 -8.5l67 -11v-16zM760 -4q-54 4 -149 4t-149 -4v16l71 12q16 2 16 10q0 7 -18 22
l-233 195q-46 38 -81 62q46 23 95 64l179 151q54 45 54 63q0 9 -14 11l-72 10v16q29 -3 122 -3t122 3v-16q-47 -4 -90 -23t-105 -71l-203 -172l296 -253q52 -45 69.5 -57t37.5 -15l52 -9v-16z" />
    <glyph glyph-name="Lambda" unicode="&#x39b;" horiz-adv-x="677" vert-adv-y="1301" 
d="M320 564l-176 -512q-3 -10 -3 -16q0 -8 6 -12t25 -5l70 -5v-16q-19 2 -123 2t-123 -2v16l63 5q33 3 46 37l224 604h29l221 -597q7 -17 13 -23t22 -11l55 -17v-15q-51 3 -131 3t-131 -3v15l66 10q19 3 26.5 7t7.5 12q0 6 -5 20z" />
    <glyph glyph-name="Mu" unicode="&#x39c;" horiz-adv-x="833" vert-adv-y="1301" 
d="M825 -3q-96 3 -143 3q-62 0 -143 -3v16l60 12q23 5 29 15t6 39v467l-224 -554l-266 597v-516q0 -47 30 -50l92 -10v-16q-60 3 -129 3q-51 0 -130 -3v16l55 10q38 7 45.5 16.5t7.5 33.5v528l-91 11v16q17 -3 96 -3q67 0 92 3l222 -496l202 496q49 -3 98 -3q48 0 90 3v-16
l-62 -13q-29 -6 -40 -18t-11 -41v-454q0 -31 5.5 -41.5t23.5 -14.5l85 -17v-16z" />
    <glyph glyph-name="Nu" unicode="&#x39d;" horiz-adv-x="771" vert-adv-y="1301" 
d="M148 67q0 -25 6 -33.5t25 -10.5l92 -10v-16q-60 3 -129 3q-51 0 -130 -3v16l55 10q34 6 43.5 14t9.5 30v436q0 46 -10 69t-38 27l-59 9v17h120q21 0 29.5 -5t23.5 -21l452 -493l-10 450q-1 28 -9.5 36t-26.5 10l-86 10v16q28 -3 108 -3t108 3v-16l-42 -4q-17 -2 -21 -12
t-3 -40l10 -569h-24l-494 530v-450z" />
    <glyph glyph-name="Xi" unicode="&#x39e;" horiz-adv-x="679" vert-adv-y="1301" 
d="M568 625q13 0 18 -7t5 -31v-99q0 -29 -8 -29q-5 0 -9 9q-27 60 -41.5 76t-41.5 16h-293q-22 0 -33.5 -4.5t-23.5 -21.5t-32 -58q-8 -16 -14 -16q-7 0 -7 17v107q0 27 3 34t15 7h462zM159 436l16 4l14 -56q4 -17 14.5 -22.5t49.5 -5.5h171q38 0 49 4t14 18l14 60l19 -2
q-2 -20 -2 -132l1 -107l-11 -3l-28 72q-6 16 -19.5 21t-41.5 5h-164q-25 0 -39 -6t-23 -29l-24 -63l-9 2l1 107q0 63 -2 133zM34 185l19 4q32 -61 55 -86.5t53 -33t94 -7.5h171q61 0 94 9.5t56 35.5t51 82l18 -4l-34 -185h-544z" />
    <glyph glyph-name="Omicron" unicode="&#x39f;" horiz-adv-x="781" vert-adv-y="1301" 
d="M389 -16q-153 0 -248 91t-95 231q0 136 97 232.5t260 96.5q138 0 234 -92.5t96 -230.5q0 -147 -95 -237.5t-249 -90.5zM136 299q0 -119 71.5 -208t177.5 -89q127 0 193.5 78t66.5 226q0 138 -70.5 224t-185.5 86q-82 0 -140.5 -44t-85.5 -119.5t-27 -153.5z" />
    <glyph glyph-name="Pi" unicode="&#x3a0;" horiz-adv-x="760" vert-adv-y="1301" 
d="M201 595v-527q0 -25 4 -34.5t17 -11.5l62 -10v-16q-50 4 -138 4q-79 0 -126 -4v16l77 14q16 3 21 12t5 30v500q0 20 -5 28.5t-17 9.5l-53 6v16q119 -3 341 -3q229 0 341 3v-16l-71 -10q-13 -2 -17 -9t-4 -26v-499q0 -21 4.5 -30t22.5 -12l77 -14v-16q-47 4 -126 4
q-88 0 -138 -4v16l62 10q12 2 16 12t4 34v527h-359z" />
    <glyph glyph-name="Rho" unicode="&#x3a1;" horiz-adv-x="563" vert-adv-y="1301" 
d="M21 625q97 0 132 2l142 8q16 1 31 1q112 0 161 -57t49 -127q0 -78 -56.5 -132.5t-138.5 -54.5q-63 0 -96 39l6 6q26 -9 54 -9q61 0 102.5 39.5t41.5 107.5q0 66 -46.5 112.5t-146.5 46.5q-35 0 -53 -8v-538q0 -15 6.5 -21.5t28.5 -11.5l73 -16v-16q-84 4 -135 4
q-35 0 -135 -3v16l56 8q15 3 20 11t5 27v477q0 38 -23.5 51t-77.5 19v19z" />
    <glyph glyph-name="Sigma" unicode="&#x3a3;" horiz-adv-x="639" vert-adv-y="1301" 
d="M161 598l207 -260l-243 -268h246q91 0 129 9.5t51 31.5t26 74h15l-3 -185h-559v9l263 299l-242 304v13h504v-137l-11 -2q-42 98 -56.5 105t-59.5 7h-267z" />
    <glyph glyph-name="Tau" unicode="&#x3a4;" horiz-adv-x="615" vert-adv-y="1301" 
d="M42 646q7 26 15 26q7 0 19 -22q9 -18 17 -21.5t31 -3.5h387q36 0 47 5.5t21 28.5q6 14 15 14q13 0 13 -20l-2 -158q0 -16 -8 -16q-11 0 -18 29q-11 49 -27 68t-69 19h-125v-515q0 -27 6.5 -36t27.5 -14l78 -17v-16q-53 3 -156 3q-132 0 -156 -3v16l70 14q29 6 38 17.5
t9 36.5v514h-123q-33 1 -54 -15t-61 -73q-18 -26 -26 -26q-5 0 -5 11t5 32z" />
    <glyph glyph-name="Upsilon" unicode="&#x3a5;" horiz-adv-x="579" vert-adv-y="1301" 
d="M11 576l-9 12q32 47 78 47q69 0 133.5 -112t82.5 -251q24 175 91 269t126 94q23 0 41.5 -18t18.5 -38q0 -17 -12.5 -33.5t-32.5 -16.5q-15 0 -29 10t-21 27t-18 17q-19 0 -55.5 -50.5t-65.5 -147t-29 -158.5v-139q0 -35 9 -46.5t45 -16.5l62 -8l-4 -20q-42 3 -150 3
l-150 -2l-1 15l65 12q33 6 42 16t9 44v93q0 78 -13.5 148t-38 126t-52 92.5t-42 47t-31.5 10.5q-26 0 -49 -26z" />
    <glyph glyph-name="Phi" unicode="&#x3a6;" horiz-adv-x="808" vert-adv-y="1301" 
d="M488 20l64 -7v-17q-56 4 -141 4q-63 0 -158 -4v22l65 3q26 1 33 19.5t8 47.5q-153 -3 -233 59t-80 176q0 102 81 158t232 56q-1 62 -22 65l-86 12v14q68 -3 150 -3q86 0 153 3v-15l-77 -11q-20 -3 -25.5 -18t-5.5 -47q149 2 231.5 -54.5t82.5 -159.5q0 -115 -82.5 -177.5
t-231.5 -57.5q-1 -36 8.5 -50.5t33.5 -17.5zM359 518q-107 -4 -165.5 -56.5t-58.5 -139.5q0 -91 58.5 -149.5t165.5 -65.5v411zM446 107q107 7 166 69t59 146q0 87 -59 139.5t-166 56.5v-411z" />
    <glyph glyph-name="Chi" unicode="&#x3a7;" horiz-adv-x="698" vert-adv-y="1301" 
d="M336 266l-125 -162q-21 -28 -21 -47q0 -17 16 -26.5t36 -11.5l61 -7v-16q-55 4 -149 4q-80 0 -149 -4v16l64 10q25 5 46.5 22t48.5 52l152 197l-182 254q-27 36 -37.5 46t-24.5 12l-67 8v16q57 -4 198 -4q71 0 111 4v-16l-61 -10q-35 -5 -35 -27q0 -16 21 -45l126 -174
l137 181q14 18 14 32q0 22 -35 30l-57 13v16q54 -4 124 -4q96 0 123 4v-16l-52 -10q-34 -6 -82 -70l-152 -202l190 -251q41 -55 69 -59l64 -9v-16q-62 4 -153 4q-73 0 -153 -4v16l46 6q28 4 38.5 8.5t10.5 12.5q0 10 -16 32z" />
    <glyph glyph-name="Psi" unicode="&#x3a8;" horiz-adv-x="756" vert-adv-y="1301" 
d="M341 231v340q0 16 -4.5 22t-20.5 7l-88 5v25q55 -5 152 -5q94 0 148 5v-25l-84 -5q-15 -1 -20 -6.5t-5 -22.5v-337q87 9 126 29t50.5 58t11.5 117q1 116 30.5 157.5t112.5 39.5l-2 -13q-63 5 -63 -70l3 -97q0 -98 -25.5 -140t-79 -69.5t-164.5 -34.5v-157
q0 -17 5.5 -22.5t19.5 -6.5l84 -5v-25q-54 5 -148 5q-97 0 -152 -5v25l88 5q17 1 21 7.5t4 21.5v157q-48 0 -91 9.5t-78.5 27t-59 43t-31.5 58.5q-5 17 -8 125q-2 56 -2 97q0 44 -64 51v13q68 2 100 -23t37.5 -72t12.5 -183q3 -59 45.5 -86.5t138.5 -39.5z" />
    <glyph glyph-name="Iotadieresis" unicode="&#x3aa;" horiz-adv-x="354" vert-adv-y="1301" 
d="M275 686q-17 0 -29.5 11.5t-12.5 29.5t12 30.5t30 12.5t30 -12t12 -30t-12 -30t-30 -12zM107 686q-17 0 -29.5 11.5t-12.5 29.5t12 30.5t29 12.5q18 0 30.5 -13t12.5 -29q0 -17 -12.5 -29.5t-29.5 -12.5zM139 54v517q0 17 -5.5 24t-19.5 8l-88 9v16q11 -3 210 -3
q59 0 94 3v-17l-88 -9q-14 -1 -19.5 -7t-5.5 -24v-517q0 -17 5 -22.5t20 -6.5l88 -5v-24q-40 4 -152 4t-152 -4v24l88 5q15 2 20 7t5 22z" />
    <glyph glyph-name="Upsilondieresis" unicode="&#x3ab;" horiz-adv-x="579" vert-adv-y="1301" 
d="M386 686q-17 0 -29.5 11.5t-12.5 29.5t12 30.5t30 12.5t30 -12t12 -30t-12 -30t-30 -12zM218 686q-17 0 -29.5 11.5t-12.5 29.5t12 30.5t29 12.5q18 0 30.5 -13t12.5 -29q0 -17 -12.5 -29.5t-29.5 -12.5zM11 576l-9 12q32 47 78 47q69 0 133.5 -112t82.5 -251
q24 175 91 269t126 94q23 0 41.5 -18t18.5 -38q0 -17 -12.5 -33.5t-32.5 -16.5q-15 0 -29 10t-21 27t-18 17q-19 0 -55.5 -50.5t-65.5 -147t-29 -158.5v-139q0 -35 9 -46.5t45 -16.5l62 -8l-4 -20q-42 3 -150 3l-150 -2l-1 15l65 12q33 6 42 16t9 44v93q0 78 -13.5 148
t-38 126t-52 92.5t-42 47t-31.5 10.5q-26 0 -49 -26z" />
    <glyph glyph-name="alphatonos" unicode="&#x3ac;" horiz-adv-x="483" vert-adv-y="1301" 
d="M235 457l-22 94q-7 30 -7 48q0 42 38 42q40 0 40 -45q0 -20 -8 -49l-24 -90h-17zM285 232l59 131q10 21 16.5 24.5t20.5 3.5q25 0 34.5 -2.5t9.5 -9.5q0 -6 -8 -21l-104 -199q16 -60 34 -89t44 -29q29 0 56 35l10 -6q-15 -44 -32 -65t-41 -21q-27 0 -45.5 27.5
t-44.5 109.5q-30 -82 -57 -109.5t-70 -27.5q-61 0 -97.5 51.5t-36.5 141.5q0 92 41.5 157t98.5 65q44 0 68.5 -41t43.5 -126zM271 199q-19 58 -35 86.5t-31 37t-37 8.5q-47 0 -78.5 -47t-31.5 -117q0 -59 26.5 -96.5t61.5 -37.5q26 0 43.5 17t46.5 77z" />
    <glyph glyph-name="epsilontonos" unicode="&#x3ad;" horiz-adv-x="374" vert-adv-y="1301" 
d="M184 457l-22 94q-7 30 -7 48q0 42 38 42q40 0 40 -45q0 -20 -8 -49l-24 -90h-17zM339 108l11 -4q-27 -58 -62 -89t-100 -31q-70 0 -109.5 33.5t-39.5 88.5q0 63 59 90q-59 24 -59 81q0 52 43.5 87t110.5 35q59 0 90.5 -28t48.5 -87l-10 -4q-54 60 -129 60
q-60 0 -91.5 -22t-31.5 -58q0 -23 17.5 -38.5t41.5 -15.5q35 0 64 11q31 12 52 12q38 0 38 -37q0 -17 -11.5 -26.5t-32.5 -9.5q-25 0 -58 14q-39 16 -58 16q-22 0 -37.5 -18.5t-15.5 -41.5q0 -36 33 -59t88 -23q94 0 148 64z" />
    <glyph glyph-name="etatonos" unicode="&#x3ae;" horiz-adv-x="491" vert-adv-y="1301" 
d="M221 458l-22 94q-7 30 -7 48q0 42 38 42q40 0 40 -45q0 -20 -8 -49l-24 -90h-17zM34 307l-10 5q20 53 36 69.5t40 16.5q35 0 54.5 -34.5t19.5 -99.5q0 -26 -3 -58q82 193 176 193q41 0 57 -34t16 -111l-5 -144q0 -131 16 -248q5 -36 5 -59q0 -29 -8.5 -42.5t-32.5 -13.5
q-41 0 -41 60q0 18 4 42q31 202 31 323q0 81 -9.5 123.5t-47.5 42.5q-99 0 -169 -321q-2 -13 -7.5 -16.5t-24.5 -3.5q-18 0 -23 2t-5 7q0 4 3 12q44 142 44 221q0 102 -53 102q-32 0 -63 -34z" />
    <glyph glyph-name="iotatonos" unicode="&#x3af;" horiz-adv-x="229" vert-adv-y="1301" 
d="M96 458l-22 94q-7 30 -7 48q0 42 38 42q40 0 40 -45q0 -20 -8 -49l-24 -90h-17zM191 76l10 -6q-22 -55 -37 -70.5t-36 -15.5t-38 16t-23.5 38t-7.5 106l-3 184q-1 52 8 58t33 6q25 0 31.5 -5.5t6.5 -20.5q0 -20 -12 -80.5t-25 -110.5q-14 -52 -14 -83q0 -24 14 -38
t32 -14q29 0 61 36z" />
    <glyph glyph-name="upsilondieresistonos" unicode="&#x3b0;" horiz-adv-x="417" vert-adv-y="1301" 
d="M197 458l-22 94q-7 30 -7 48q0 42 38 42q40 0 40 -45q0 -20 -8 -49l-24 -90h-17zM59 554q0 16 11 27t27 11t27 -11t11 -27t-11 -27t-27 -11t-27 11t-11 27zM278 554q0 16 11 27t27 11t27 -11t11 -27t-11 -27t-27 -11t-27 11t-11 27zM250 399q131 -53 131 -195
q0 -101 -49 -160.5t-127 -59.5q-46 0 -82.5 25.5t-44.5 69t-11 111.5q-5 72 -19 126q-6 27 -6 39q0 20 10 32t28 12q44 0 44 -62q0 -19 -5 -44q-25 -136 -25 -170q0 -40 25 -69.5t64 -29.5q54 0 93.5 63.5t39.5 147.5q0 109 -74 154z" />
    <glyph glyph-name="alpha" unicode="&#x3b1;" horiz-adv-x="483" vert-adv-y="1301" 
d="M285 232l59 131q10 21 16.5 24.5t20.5 3.5q25 0 34.5 -2.5t9.5 -9.5q0 -6 -8 -21l-104 -199q16 -60 34 -89t44 -29q29 0 56 35l10 -6q-15 -44 -32 -65t-41 -21q-27 0 -45.5 27.5t-44.5 109.5q-30 -82 -57 -109.5t-70 -27.5q-61 0 -97.5 51.5t-36.5 141.5q0 92 41.5 157
t98.5 65q44 0 68.5 -41t43.5 -126zM271 199q-19 58 -35 86.5t-31 37t-37 8.5q-47 0 -78.5 -47t-31.5 -117q0 -59 26.5 -96.5t61.5 -37.5q26 0 43.5 17t46.5 77z" />
    <glyph glyph-name="beta" unicode="&#x3b2;" horiz-adv-x="491" vert-adv-y="1301" 
d="M115 85q9 -133 26 -206q11 -50 11 -79q0 -52 -39 -52q-27 0 -34 14.5t-7 44.5q0 29 6 80q17 153 16 272l-3 243q-1 85 24.5 137.5t74 74t94.5 21.5q52 0 90 -39t38 -95q0 -90 -110 -147q54 -18 100.5 -69t46.5 -122q0 -62 -37.5 -120.5t-119.5 -58.5q-108 0 -177 101z
M116 123q65 -78 142 -78q63 0 102.5 53t39.5 103q0 47 -36 79.5t-82 32.5l-47 -5q-16 0 -27 11t-11 25q0 13 10 21.5t27 8.5q18 0 41 -10q19 0 51 53.5t32 102.5q0 39 -17 57.5t-53 18.5q-75 0 -121.5 -86.5t-48.5 -230.5z" />
    <glyph glyph-name="gamma" unicode="&#x3b3;" horiz-adv-x="413" vert-adv-y="1301" 
d="M16 296l-10 7q39 96 76 96q69 0 143 -367q85 145 85 231q0 23 -6 56.5t-6 36.5q0 18 12.5 30.5t30.5 12.5q20 0 32.5 -19.5t12.5 -50.5q0 -82 -153 -330l7 -47q11 -70 11 -110q0 -90 -41 -90t-41 80q0 72 38 163q-33 166 -67.5 246t-68.5 80q-21 0 -55 -25z" />
    <glyph glyph-name="delta" unicode="&#x3b4;" horiz-adv-x="481" vert-adv-y="1301" 
d="M231 374q-62 43 -90.5 69t-36 44.5t-7.5 43.5q0 46 28 75t73 29q36 0 65 -11.5t84.5 -62.5t55.5 -66q0 -9 -17.5 -21.5t-25.5 -12.5q-9 0 -23 18q-50 66 -84.5 97.5t-65.5 31.5q-28 0 -45 -18t-17 -47q0 -37 35 -67t103 -68q88 -50 131.5 -106.5t43.5 -127.5
q0 -78 -55.5 -134t-142.5 -56t-142.5 59.5t-55.5 142.5q0 78 49 128t140 60zM255 358q-69 -23 -109 -82t-40 -133q0 -62 34 -97.5t94 -35.5q63 0 97 48.5t34 133.5q0 107 -110 166z" />
    <glyph glyph-name="epsilon" unicode="&#x3b5;" horiz-adv-x="374" vert-adv-y="1301" 
d="M339 108l11 -4q-27 -58 -62 -89t-100 -31q-70 0 -109.5 33.5t-39.5 88.5q0 63 59 90q-59 24 -59 81q0 52 43.5 87t110.5 35q59 0 90.5 -28t48.5 -87l-10 -4q-54 60 -129 60q-60 0 -91.5 -22t-31.5 -58q0 -23 17.5 -38.5t41.5 -15.5q35 0 64 11q31 12 52 12q38 0 38 -37
q0 -17 -11.5 -26.5t-32.5 -9.5q-25 0 -58 14q-39 16 -58 16q-22 0 -37.5 -18.5t-15.5 -41.5q0 -36 33 -59t88 -23q94 0 148 64z" />
    <glyph glyph-name="zeta" unicode="&#x3b6;" horiz-adv-x="381" vert-adv-y="1301" 
d="M130 642l4 -12q-40 -21 -40 -57q0 -47 59 -47t116 71q36 45 72 45q31 0 31 -33q0 -15 -10.5 -26t-50.5 -36q-249 -155 -249 -350q0 -65 40.5 -101.5t113.5 -36.5h48q45 0 69.5 -24.5t24.5 -68.5q0 -48 -34.5 -80t-84.5 -32q-24 0 -38 10t-14 25q0 11 10 20t23 9
q15 0 31 -10q18 -11 36 -11q20 0 34 15t14 37q0 23 -19.5 32.5t-67.5 9.5h-20q-88 0 -138.5 55.5t-50.5 151.5q0 162 140 314q-28 -13 -55 -13q-33 0 -58 17.5t-25 45.5q0 25 23 47t66 33z" />
    <glyph glyph-name="eta" unicode="&#x3b7;" horiz-adv-x="491" vert-adv-y="1301" 
d="M34 307l-10 5q20 53 36 69.5t40 16.5q35 0 54.5 -34.5t19.5 -99.5q0 -26 -3 -58q82 193 176 193q41 0 57 -34t16 -111l-5 -144q0 -131 16 -248q5 -36 5 -59q0 -29 -8.5 -42.5t-32.5 -13.5q-41 0 -41 60q0 18 4 42q31 202 31 323q0 81 -9.5 123.5t-47.5 42.5
q-99 0 -169 -321q-2 -13 -7.5 -16.5t-24.5 -3.5q-18 0 -23 2t-5 7q0 4 3 12q44 142 44 221q0 102 -53 102q-32 0 -63 -34z" />
    <glyph glyph-name="theta" unicode="&#x3b8;" horiz-adv-x="445" vert-adv-y="1301" 
d="M406 269q0 -119 -54.5 -202t-129.5 -83q-78 0 -130.5 100.5t-52.5 245.5q0 131 54 218t132 87t129.5 -95.5t51.5 -270.5zM335 361q0 127 -25.5 189.5t-84.5 62.5q-64 0 -86.5 -68t-26.5 -184h223zM111 339q0 -168 23.5 -251t85.5 -83q68 0 92 62.5t24 200.5q0 53 -1 71
h-224z" />
    <glyph glyph-name="iota" unicode="&#x3b9;" horiz-adv-x="229" vert-adv-y="1301" 
d="M191 76l10 -6q-22 -55 -37 -70.5t-36 -15.5t-38 16t-23.5 38t-7.5 106l-3 184q-1 52 8 58t33 6q25 0 31.5 -5.5t6.5 -20.5q0 -20 -12 -80.5t-25 -110.5q-14 -52 -14 -83q0 -24 14 -38t32 -14q29 0 61 36z" />
    <glyph glyph-name="kappa" unicode="&#x3ba;" horiz-adv-x="451" vert-adv-y="1301" 
d="M335 280q-15 -105 -15 -146q0 -91 44 -91q33 0 66 37l9 -6q-23 -53 -40.5 -71.5t-41.5 -18.5q-30 0 -46 35.5t-16 101.5q0 59 13 138q-53 -55 -131 -167q-56 -80 -71 -94t-37 -14q-15 0 -25 10t-10 26q0 20 15.5 37.5t66.5 52.5q14 91 14 144q0 44 -10 65t-34 21
q-29 0 -65 -36l-9 6q37 89 82 89q61 0 61 -132q0 -58 -12 -138q55 55 128 162q47 71 67.5 90t42.5 19q17 0 26 -12t9 -24q0 -37 -81 -84z" />
    <glyph glyph-name="lambda" unicode="&#x3bb;" horiz-adv-x="421" vert-adv-y="1301" 
d="M207 294l-119 -273q-5 -13 -13 -17t-30 -4q-29 0 -29 11q0 19 171 369q-18 79 -31.5 118.5t-27 54t-32.5 14.5q-30 0 -61 -57l-7 11q30 112 78 112q23 0 38 -17t32.5 -73t41.5 -173q42 -206 76 -258.5t66 -52.5q14 0 24.5 9.5t31.5 47.5l8 -12q-14 -50 -26 -75t-23 -32.5
t-26 -7.5q-83 0 -142 305z" />
    <glyph glyph-name="nu" unicode="&#x3bd;" horiz-adv-x="378" vert-adv-y="1301" 
d="M194 -13h-16q-17 121 -47 200.5t-82 137.5q-21 23 -21 40q0 13 11.5 23.5t23.5 10.5q35 0 67 -80t57 -248q120 133 120 248q0 37 -13 72l9 7q50 -44 50 -124q0 -117 -159 -287z" />
    <glyph glyph-name="xi" unicode="&#x3be;" horiz-adv-x="381" vert-adv-y="1301" 
d="M130 642l4 -12q-40 -21 -40 -57q0 -21 16 -34.5t41 -13.5q23 0 48.5 12.5t69.5 59.5q44 46 71 46q13 0 23 -8.5t10 -20.5q0 -26 -45 -53q-142 -87 -184 -130.5t-42 -73.5q0 -32 44 -32q30 0 78 37q50 38 73 38q35 0 35 -33q0 -21 -18.5 -34t-78.5 -33q-161 -55 -161 -146
q0 -45 34 -70t97 -25h30q67 0 95 -22t28 -71q0 -50 -34 -81t-86 -31q-23 0 -37 10t-14 25q0 12 9 19.5t22 7.5q15 0 31 -9q17 -10 35 -10q21 0 36 15t15 37q0 42 -61 42h-48q-187 0 -187 140q0 100 116 172q-85 3 -85 58q0 17 6 32t29.5 42.5t73.5 76.5q-28 -13 -56 -13
q-34 0 -57 18t-23 45q0 56 87 80z" />
    <glyph glyph-name="omicron" unicode="&#x3bf;" horiz-adv-x="493" vert-adv-y="1301" 
d="M36 195q0 86 59.5 145t153.5 59q90 0 149 -58t59 -144q0 -87 -61 -150t-153 -63t-149.5 59t-57.5 152zM389 241q0 63 -34 99.5t-89 36.5q-70 0 -118 -74t-48 -161q0 -60 33.5 -96.5t88.5 -36.5q67 0 117 69.5t50 162.5z" />
    <glyph glyph-name="pi" unicode="&#x3c0;" horiz-adv-x="476" vert-adv-y="1301" 
d="M43 262h-14q15 56 31 79.5t48 31.5t104 8h224v-56h-90q-21 -122 -21 -189q0 -95 56 -95q26 0 56 35l9 -6q-23 -53 -40 -69.5t-38 -16.5q-78 0 -78 132q0 74 32 209h-125q-13 -135 -21.5 -205t-16 -91.5t-20.5 -33t-28 -11.5q-14 0 -25.5 10t-11.5 24q0 18 22 43
q27 29 40.5 65t36.5 199h-26q-49 0 -70 -17.5t-34 -45.5z" />
    <glyph glyph-name="rho" unicode="&#x3c1;" horiz-adv-x="493" vert-adv-y="1301" 
d="M79 115q2 -131 36.5 -190.5t116.5 -59.5h33q56 0 83 -7.5t40.5 -28.5t22.5 -67l-20 -10q-12 29 -27 36t-51 7h-56q-126 0 -166 89.5t-40 210.5q0 153 59 228.5t165 75.5q89 0 143.5 -59.5t54.5 -149.5q0 -82 -62.5 -142t-155.5 -60q-117 0 -176 127zM405 235
q0 62 -33 102t-85 40q-73 0 -116.5 -81.5t-43.5 -151.5q0 -62 33 -97t81 -35q70 0 117 73t47 150z" />
    <glyph glyph-name="sigma1" unicode="&#x3c2;" horiz-adv-x="360" vert-adv-y="1301" 
d="M258 58q88 0 88 -91q0 -54 -37 -84.5t-82 -30.5q-25 0 -38.5 11.5t-13.5 25.5q0 11 10 19t23 8t31 -9q20 -10 38 -10q21 0 33.5 14.5t12.5 37.5q0 41 -57 41h-41q-87 0 -138 55t-51 148q0 90 56.5 148t144.5 58q50 0 82 -17t32 -43q0 -17 -9.5 -27t-24.5 -10
q-26 0 -52 27q-24 24 -60 24q-63 0 -104.5 -45.5t-41.5 -111.5q0 -64 40.5 -101t115.5 -37h43z" />
    <glyph glyph-name="sigma" unicode="&#x3c3;" horiz-adv-x="477" vert-adv-y="1301" 
d="M466 381v-56h-146q98 -61 98 -153q0 -80 -55.5 -134t-141.5 -54q-85 0 -135 52.5t-50 142.5q0 52 21.5 96.5t55 67.5t77 30.5t131.5 7.5h145zM289 324q-39 0 -75 -4t-64 -32t-42 -66.5t-14 -81.5q0 -61 31 -95.5t82 -34.5q62 0 102.5 55.5t40.5 138.5q0 81 -61 120z" />
    <glyph glyph-name="tau" unicode="&#x3c4;" horiz-adv-x="372" vert-adv-y="1301" 
d="M43 262h-14q10 51 27 76t48 34t88 9h150v-57h-126l-8 -48q-13 -88 -13 -141q0 -94 56 -94q27 0 56 35l10 -6q-17 -39 -29.5 -57.5t-23.5 -23.5t-26 -5q-37 0 -57.5 33.5t-20.5 94.5q0 92 33 212h-29q-58 0 -79 -10.5t-42 -51.5z" />
    <glyph glyph-name="upsilon" unicode="&#x3c5;" horiz-adv-x="417" vert-adv-y="1301" 
d="M250 399q131 -53 131 -195q0 -101 -49 -160.5t-127 -59.5q-46 0 -82.5 25.5t-44.5 69t-11 111.5q-5 72 -19 126q-6 27 -6 39q0 20 10 32t28 12q44 0 44 -62q0 -19 -5 -44q-25 -136 -25 -170q0 -40 25 -69.5t64 -29.5q54 0 93.5 63.5t39.5 147.5q0 109 -74 154z" />
    <glyph glyph-name="phi" unicode="&#x3c6;" horiz-adv-x="492" vert-adv-y="1301" 
d="M261 -12q11 -82 34 -140q9 -25 9 -46q0 -23 -11 -36.5t-31 -13.5q-23 0 -35.5 15.5t-12.5 43.5q0 11 2 23q13 82 16 154q-96 8 -146 77t-50 187q0 71 19 109t49 38q15 0 25.5 -7.5t10.5 -23.5q0 -28 -35 -71q-42 -51 -42 -100q0 -61 40 -105t106 -44q12 0 25 2v166
q0 95 26 139t80 44q55 0 86 -46t31 -125q0 -103 -49.5 -165.5t-146.5 -74.5zM258 53q76 7 125.5 65t49.5 127q0 44 -26 74t-67 30q-45 0 -64 -31.5t-19 -107.5z" />
    <glyph glyph-name="chi" unicode="&#x3c7;" horiz-adv-x="477" vert-adv-y="1301" 
d="M260 45q24 -101 61.5 -162.5t70.5 -61.5q15 0 28.5 14t37.5 61l7 -7q-17 -73 -34 -105t-48 -32q-43 0 -76 71t-66 184l-86 -169q-26 -52 -40 -65.5t-38 -13.5q-31 0 -31 10q0 4 6 13q93 140 169 303q-63 245 -130 245q-14 0 -25.5 -13.5t-34.5 -61.5l-8 7q16 61 28 90
t23.5 38t29.5 9q24 0 41.5 -20t42.5 -84.5t52 -170.5q74 148 101 199t36 59.5t32 8.5q35 0 35 -10q0 -5 -5 -12q-86 -132 -179 -324z" />
    <glyph glyph-name="psi" unicode="&#x3c8;" horiz-adv-x="501" vert-adv-y="1301" 
d="M400 396l11 4q55 -66 55 -164q0 -97 -54 -169.5t-148 -76.5q8 -71 28 -126q16 -45 16 -64q0 -21 -12.5 -34t-31.5 -13q-46 0 -46 57q0 17 3 39q12 82 13 141q-94 6 -146 91.5t-52 230.5q0 88 52 88q31 0 31 -36q0 -17 -23 -58q-30 -54 -30 -91q0 -70 39.5 -118t108.5 -48
q11 0 23 1q0 247 -5.5 326t-20.5 161q-6 33 -6 54q0 27 10.5 39t34.5 12t34.5 -13.5t10.5 -43.5q0 -22 -5 -56q-21 -140 -23 -243l-5 -233q76 15 118.5 75t42.5 144q0 61 -23 124z" />
    <glyph glyph-name="omega" unicode="&#x3c9;" horiz-adv-x="572" vert-adv-y="1301" 
d="M299 93q23 -38 40 -51t40 -13q45 0 69.5 41.5t24.5 120.5q0 112 -83 185l15 15q62 -33 96 -92.5t34 -130.5q0 -81 -39.5 -132.5t-99.5 -51.5q-70 0 -108 78q-45 -78 -110 -78q-55 0 -98 57t-43 137q0 127 115 215l34 -27q-49 -64 -64.5 -105.5t-15.5 -94.5q0 -61 26 -99
t61 -38q22 0 47.5 19t35.5 47q-27 63 -27 115q0 24 10.5 41t26.5 17q17 0 28 -17t11 -44q0 -51 -26 -114z" />
    <glyph glyph-name="iotadieresis" unicode="&#x3ca;" horiz-adv-x="229" vert-adv-y="1301" 
d="M-11 558q0 17 12.5 29.5t29.5 12.5t29.5 -12.5t12.5 -29.5t-12.5 -29.5t-29.5 -12.5t-29.5 12.5t-12.5 29.5zM157 558q0 17 12.5 29.5t29.5 12.5t29.5 -12.5t12.5 -29.5t-12.5 -29.5t-29.5 -12.5t-29.5 12.5t-12.5 29.5zM190 76l10 -6q-22 -55 -37 -70.5t-36 -15.5
t-38 16t-23.5 38t-7.5 106l-3 184q-1 52 8 58t33 6q25 0 31.5 -5.5t6.5 -20.5q0 -20 -12 -80.5t-25 -110.5q-14 -52 -14 -83q0 -24 14 -38t32 -14q29 0 61 36z" />
    <glyph glyph-name="upsilondieresis" unicode="&#x3cb;" horiz-adv-x="417" vert-adv-y="1301" 
d="M86 557q0 17 12.5 29.5t29.5 12.5t29.5 -12.5t12.5 -29.5t-12.5 -29.5t-29.5 -12.5t-29.5 12.5t-12.5 29.5zM254 557q0 17 12.5 29.5t29.5 12.5t29.5 -12.5t12.5 -29.5t-12.5 -29.5t-29.5 -12.5t-29.5 12.5t-12.5 29.5zM250 399q131 -53 131 -195q0 -101 -49 -160.5
t-127 -59.5q-46 0 -82.5 25.5t-44.5 69t-11 111.5q-5 72 -19 126q-6 27 -6 39q0 20 10 32t28 12q44 0 44 -62q0 -19 -5 -44q-25 -136 -25 -170q0 -40 25 -69.5t64 -29.5q54 0 93.5 63.5t39.5 147.5q0 109 -74 154z" />
    <glyph glyph-name="omicrontonos" unicode="&#x3cc;" horiz-adv-x="493" vert-adv-y="1301" 
d="M235 458l-22 94q-7 30 -7 48q0 42 38 42q40 0 40 -45q0 -20 -8 -49l-24 -90h-17zM36 195q0 86 59.5 145t153.5 59q90 0 149 -58t59 -144q0 -87 -61 -150t-153 -63t-149.5 59t-57.5 152zM389 241q0 63 -34 99.5t-89 36.5q-70 0 -118 -74t-48 -161q0 -60 33.5 -96.5
t88.5 -36.5q67 0 117 69.5t50 162.5z" />
    <glyph glyph-name="upsilontonos" unicode="&#x3cd;" horiz-adv-x="417" vert-adv-y="1301" 
d="M189 458l-22 94q-7 30 -7 48q0 42 38 42q40 0 40 -45q0 -20 -8 -49l-24 -90h-17zM250 399q131 -53 131 -195q0 -101 -49 -160.5t-127 -59.5q-46 0 -82.5 25.5t-44.5 69t-11 111.5q-5 72 -19 126q-6 27 -6 39q0 20 10 32t28 12q44 0 44 -62q0 -19 -5 -44
q-25 -136 -25 -170q0 -40 25 -69.5t64 -29.5q54 0 93.5 63.5t39.5 147.5q0 109 -74 154z" />
    <glyph glyph-name="omegatonos" unicode="&#x3ce;" horiz-adv-x="572" vert-adv-y="1301" 
d="M276 458l-22 94q-7 30 -7 48q0 42 38 42q40 0 40 -45q0 -20 -8 -49l-24 -90h-17zM299 93q23 -38 40 -51t40 -13q45 0 69.5 41.5t24.5 120.5q0 112 -83 185l15 15q62 -33 96 -92.5t34 -130.5q0 -81 -39.5 -132.5t-99.5 -51.5q-70 0 -108 78q-45 -78 -110 -78q-55 0 -98 57
t-43 137q0 127 115 215l34 -27q-49 -64 -64.5 -105.5t-15.5 -94.5q0 -61 26 -99t61 -38q22 0 47.5 19t35.5 47q-27 63 -27 115q0 24 10.5 41t26.5 17q17 0 28 -17t11 -44q0 -51 -26 -114z" />
    <glyph glyph-name="afii10023" unicode="&#x401;" horiz-adv-x="656" vert-adv-y="1301" 
d="M222 725q0 17 12.5 29.5t29.5 12.5t29.5 -12.5t12.5 -29.5t-12.5 -29.5t-29.5 -12.5t-29.5 12.5t-12.5 29.5zM390 725q0 17 12.5 29.5t29.5 12.5t29.5 -12.5t12.5 -29.5t-12.5 -29.5t-29.5 -12.5t-29.5 12.5t-12.5 29.5zM633 162q-22 -92 -25 -165q-124 3 -292 3t-292 -3
v17l72 5q17 1 23.5 7t6.5 28v503q0 24 -5.5 34.5t-19.5 11.5l-73 7v18q81 -3 269 -3q190 0 269 3q-3 -31 -3 -74q0 -33 2 -65h-13q-22 55 -34 78.5t-22 30.5t-27 7h-232q-17 0 -23 -9.5t-6 -32.5v-230h225q17 0 25 5.5t12 24.5l13 70h20q-3 -59 -3 -120q0 -60 3 -120h-12
l-22 78q-7 22 -20 30.5t-39 8.5h-202v-249q0 -22 8 -30.5t34 -8.5h222q30 0 50.5 9.5t42 39.5t48.5 91h20z" />
    <glyph glyph-name="afii10051" unicode="&#x402;" horiz-adv-x="755" vert-adv-y="1301" 
d="M358 285v-205q0 -27 6.5 -36t27.5 -14l78 -17v-16q-53 3 -156 3q-132 0 -156 -3v16l70 14q29 6 38 17.5t9 36.5v514h-123q-33 1 -54 -15t-61 -73q-18 -26 -26 -26q-5 0 -5 11t5 32l31 122q6 26 15 26q7 0 19 -22q9 -18 17 -21.5t31 -3.5h387q36 0 47 5.5t21 28.5
q6 14 15 14q13 0 13 -20l-2 -158q0 -16 -8 -16q-11 0 -18 29q-11 49 -27 68t-69 19h-125v-274q70 74 167 74q79 0 136.5 -67t57.5 -166q0 -130 -52 -204t-162 -102v13q66 38 95.5 89.5t29.5 187.5q0 93 -40.5 148.5t-99.5 55.5q-72 0 -132 -65z" />
    <glyph glyph-name="afii10052" unicode="&#x403;" horiz-adv-x="540" vert-adv-y="1301" 
d="M241 687l60 87q43 63 77 63q12 0 20.5 -7.5t8.5 -16.5q0 -23 -72 -71l-90 -60zM5 628q137 -3 255 -3q101 0 257 3l28 -166h-16q-49 85 -79 111.5t-74 26.5h-114q-40 0 -48.5 -8.5t-8.5 -38.5v-484q0 -22 6.5 -33.5t32.5 -12.5l76 -4l3 -22q-79 3 -150 3q-63 0 -152 -3v16
l59 11q31 5 36 16t5 35v475q0 33 -19 43t-95 20z" />
    <glyph glyph-name="afii10053" unicode="&#x404;" horiz-adv-x="635" vert-adv-y="1301" 
d="M140 310q0 -304 244 -304q139 0 204 132h13q-11 -61 -31 -129q-64 -25 -186 -25q-157 0 -249 86.5t-92 228.5q0 87 43.5 166t118 124.5t160.5 45.5q88 0 131 -8t83 -33q6 -48 5 -99h-19q-20 58 -67.5 88.5t-114.5 30.5q-96 0 -165 -76t-77 -205h214q17 0 25 5.5t12 24.5
l13 70h20q-3 -60 -3 -120t3 -120h-12l-22 78q-6 22 -19 30.5t-40 8.5h-192z" />
    <glyph glyph-name="afii10054" unicode="&#x405;" horiz-adv-x="479" vert-adv-y="1301" 
d="M376 477q-29 131 -144 131q-54 0 -90.5 -31t-36.5 -73q0 -33 29.5 -61t122.5 -76q95 -49 137.5 -86t42.5 -110q0 -84 -58.5 -135.5t-163.5 -51.5q-97 0 -177 47l11 149h14q9 -74 60 -121.5t113 -47.5q59 0 99.5 35t40.5 84q0 44 -32.5 74t-107.5 69q-104 54 -145 98
t-41 101q0 71 55 117t143 46t145 -44l-4 -114h-13z" />
    <glyph glyph-name="afii10055" unicode="&#x406;" horiz-adv-x="354" vert-adv-y="1301" 
d="M139 54v517q0 17 -5.5 24t-19.5 8l-88 9v16q11 -3 210 -3q59 0 94 3v-17l-88 -9q-14 -1 -19.5 -7t-5.5 -24v-517q0 -17 5 -22.5t20 -6.5l88 -5v-24q-40 4 -152 4t-152 -4v24l88 5q15 2 20 7t5 22z" />
    <glyph glyph-name="afii10056" unicode="&#x407;" horiz-adv-x="354" vert-adv-y="1301" 
d="M54 725q0 17 12.5 29.5t29.5 12.5t29.5 -12.5t12.5 -29.5t-12.5 -29.5t-29.5 -12.5t-29.5 12.5t-12.5 29.5zM222 725q0 17 12.5 29.5t29.5 12.5t29.5 -12.5t12.5 -29.5t-12.5 -29.5t-29.5 -12.5t-29.5 12.5t-12.5 29.5zM139 54v517q0 17 -5.5 24t-19.5 8l-88 9v16
q11 -3 210 -3q59 0 94 3v-17l-88 -9q-14 -1 -19.5 -7t-5.5 -24v-517q0 -17 5 -22.5t20 -6.5l88 -5v-24q-40 4 -152 4t-152 -4v24l88 5q15 2 20 7t5 22z" />
    <glyph glyph-name="afii10057" unicode="&#x408;" horiz-adv-x="333" vert-adv-y="1301" 
d="M274 612l-49 -9q-14 -2 -18 -10t-4 -27v-474q0 -70 -13 -126t-40 -103t-53.5 -71.5t-54 -33t-68.5 -8.5q-62 0 -62 42q0 18 9 28.5t24 10.5q24 0 52 -25q20 -18 40 -18q28 0 51.5 32.5t30.5 74t7 193.5v481q0 14 -3.5 22t-10.5 10.5t-29 4.5l-59 6v16q25 -3 125 -3
q99 0 125 3v-16z" />
    <glyph glyph-name="afii10058" unicode="&#x409;" horiz-adv-x="958" vert-adv-y="1301" 
d="M470 358q55 3 113 3q133 0 195 -13t98 -55t36 -101q0 -78 -61 -135t-152 -57h-161q-75 0 -131 -3v15l66 10q19 3 26.5 7t7.5 12q0 6 -5 20l-81 223h-197l-80 -232q-3 -10 -3 -16q0 -8 6 -12t25 -5l70 -5v-16q-19 2 -123 2t-123 -2v16l63 5q33 3 46 37l224 604h29z
M413 306l-93 258l-88 -258h181zM577 68q51 -43 102 -43q61 0 104 45t43 110q0 26 -8 54t-37 57.5t-106.5 34.5t-125.5 5q-37 0 -68 -2z" />
    <glyph glyph-name="afii10059" unicode="&#x40a;" horiz-adv-x="988" vert-adv-y="1301" 
d="M580 353q88 7 165 7q94 0 145.5 -45t51.5 -128q0 -77 -69 -132t-179 -55h-185q-46 0 -102 -4v19l50 11q24 5 34.5 12.5t10.5 29.5v251h-302v-257q0 -20 7.5 -27t34.5 -14l45 -12v-18q-45 9 -133 9q-65 0 -132 -8v19l57 11q25 5 35 11.5t10 26.5v489q0 31 -7.5 40
t-23.5 12l-45 8l-3 17q34 -1 122 -1q67 0 126 4l-2 -18l-54 -7q-24 -3 -30.5 -14.5t-6.5 -41.5v-199h302v202q0 29 -6.5 39t-24.5 13l-44 7l-3 21q58 -6 121 -6q42 0 117 6l-3 -21l-48 -7q-19 -3 -25 -13t-6 -39v-198zM580 329v-211q0 -59 25.5 -76t90.5 -17q67 0 113.5 45
t46.5 118q0 68 -51 106.5t-144 38.5q-47 0 -81 -4z" />
    <glyph glyph-name="afii10060" unicode="&#x40b;" horiz-adv-x="756" vert-adv-y="1301" 
d="M355 290q40 50 93.5 79t91.5 29q61 0 95.5 -33.5t34.5 -95.5v-206q0 -22 5.5 -28t19.5 -9l44 -8v-21q-55 3 -119 3q-46 0 -96 -3v20l47 8q13 2 16.5 9.5t3.5 25.5v182q0 47 -25 78t-66 31q-70 0 -145 -100v-181q0 -19 6 -26t18 -10l87 -21l2 -18q-48 5 -153 5
q-67 0 -158 -7l2 20l56 13q30 7 44 17.5t14 28.5v524h-122q-43 0 -64 -21t-59 -74q-13 -19 -21 -19q-6 0 -6 10q0 6 2 15l37 147q5 18 14 18t17 -16q10 -20 21.5 -25.5t44.5 -5.5h380q32 0 41 6.5t16 26.5q6 17 16 17q12 0 12 -25v-146q-1 -22 -12 -22q-8 0 -11 12
q-10 44 -21 65t-28 28t-48 7h-127v-304z" />
    <glyph glyph-name="afii10061" unicode="&#x40c;" horiz-adv-x="660" vert-adv-y="1301" 
d="M290 691l60 87q43 63 77 63q12 0 20.5 -7.5t8.5 -16.5q0 -23 -72 -71l-90 -60zM201 304v-242q0 -21 7 -28t33 -13l51 -12v-18q-55 9 -125 9q-63 0 -131 -12v19l42 11q25 7 35 14t10 28v489q0 31 -7.5 40t-23.5 12l-45 8l-3 17q34 -1 122 -1q59 0 116 4l-2 -18l-44 -9
q-25 -5 -30 -13t-5 -41v-216q55 8 90 35t78 107q43 82 80 121.5t77 39.5q28 0 46 -16.5t18 -37.5q0 -18 -13 -34t-31 -16q-34 0 -50 37q-8 17 -18 17q-26 0 -81 -100q-52 -94 -74.5 -115.5t-56.5 -34.5q49 0 79.5 -17t77.5 -76.5t123 -174.5q13 -19 33.5 -32t38.5 -16l35 -5
l1 -18q-25 4 -66 4q-55 0 -91 -4q-28 47 -96.5 146.5t-105.5 130.5t-94 31z" />
    <glyph glyph-name="afii10062" unicode="&#x40e;" horiz-adv-x="656" vert-adv-y="1301" 
d="M356 691q-71 0 -111.5 20t-40.5 54q0 18 12.5 31t32.5 13q13 0 26.5 -10t22.5 -27q19 -35 30.5 -44.5t25.5 -9.5q27 0 51 43q15 28 26.5 38t28.5 10q18 0 30.5 -13t12.5 -31q0 -34 -40 -54t-107 -20zM545 496l-175 -340q-47 -90 -86 -131t-89 -41q-29 0 -49.5 17
t-20.5 41q0 19 11.5 32t31.5 13q18 0 27.5 -7t21.5 -28q11 -19 33 -19q14 0 20 9l40 58l-206 443q-25 55 -66 61l-43 6l-3 18q58 -3 192 -3q50 0 82 2l-2 -18l-58 -6q-32 -4 -32 -20q0 -7 5 -19l172 -391l162 328q29 58 29 81q0 13 -9 21t-33 11l-43 6l-3 18q34 -3 103 -3
q73 0 111 2l-2 -18l-38 -8q-10 -2 -35.5 -37t-47.5 -78z" />
    <glyph glyph-name="afii10145" unicode="&#x40f;" horiz-adv-x="751" vert-adv-y="1301" 
d="M328 -4q-180 0 -308 -4l1 18l84 15v470q0 61 -5.5 80.5t-21.5 24.5l-59 18v11q113 -6 170 -6q56 0 95 3v-11l-69 -18q-34 -10 -34 -57v-508h364v464q0 59 -4 79t-13 23l-68 21v11q70 -5 128 -5q92 0 136 2v-16l-56 -11q-28 -5 -37 -26t-9 -91v-448l93 -24v-13
q-85 1 -187 -0.5t-143 -1.5v-111h-57v111z" />
    <glyph glyph-name="afii10017" unicode="&#x410;" horiz-adv-x="677" vert-adv-y="1301" 
d="M224 284l-80 -232q-3 -10 -3 -16q0 -8 6 -12t25 -5l70 -5v-16q-19 2 -123 2t-123 -2v16l63 5q33 3 46 37l224 604h29l221 -597q7 -17 13 -23t22 -11l55 -17v-15q-51 3 -131 3t-131 -3v15l66 10q19 3 26.5 7t7.5 12q0 6 -5 20l-81 223h-197zM413 306l-93 258l-88 -258h181
z" />
    <glyph glyph-name="afii10018" unicode="&#x411;" horiz-adv-x="623" vert-adv-y="1301" 
d="M132 625h263q55 0 124 2q-4 -31 -4 -65t4 -73l-13 -2q-22 56 -37 79t-31 29.5t-48 6.5h-177v-249q88 7 165 7q96 0 146.5 -44.5t50.5 -128.5q0 -77 -69 -132t-179 -55h-191q-46 0 -102 -4v19l50 11q24 5 34.5 12.5t10.5 29.5v481q0 35 -10.5 43t-20.5 9l-79 8l-3 17z
M213 324v-207q0 -54 27 -73.5t89 -19.5q68 0 114 44.5t46 118.5q0 67 -50.5 104t-144.5 37q-47 0 -81 -4z" />
    <glyph glyph-name="afii10019" unicode="&#x412;" horiz-adv-x="615" vert-adv-y="1301" 
d="M13 605v17l59 3q188 10 220 10q112 0 171 -38.5t59 -110.5q0 -76 -108 -124q154 -42 154 -173q0 -54 -35 -99.5t-95.5 -68t-133.5 -22.5l-208 1h-71v16l63 12q19 4 27 14.5t8 39.5v484q0 16 -5.5 23t-39.5 10zM205 356q17 -3 78 -3q71 0 113.5 38.5t42.5 103.5
q0 55 -41 85.5t-118 30.5q-39 0 -75 -9v-246zM205 326v-224q0 -76 117 -76q64 0 112 44.5t48 102.5q0 80 -49.5 118.5t-151.5 38.5q-35 0 -76 -4z" />
    <glyph glyph-name="afii10020" unicode="&#x413;" horiz-adv-x="540" vert-adv-y="1301" 
d="M5 628q137 -3 255 -3q98 0 253 3l28 -166h-16q-49 85 -79 111.5t-74 26.5h-110q-40 0 -48.5 -8.5t-8.5 -38.5v-484q0 -22 6.5 -33.5t32.5 -12.5l76 -4l3 -22q-79 3 -150 3q-63 0 -152 -3v16l59 11q31 5 36 16t5 35v475q0 33 -19 43t-95 20z" />
    <glyph glyph-name="afii10021" unicode="&#x414;" horiz-adv-x="654" vert-adv-y="1301" 
d="M649 13q5 -79 27 -154l-16 -5q-32 67 -55 97.5t-47.5 39.5t-67.5 9h-342q-53 0 -84.5 -28t-70.5 -114l-17 4q25 87 29 159q43 0 64.5 9.5t28.5 29.5l224 600h29l221 -592q10 -25 27 -36t50 -19zM495 66l-182 490l-176 -500q-3 -8 -3 -13q0 -13 19 -13h302q43 0 43 22
q0 5 -3 14z" />
    <glyph glyph-name="afii10022" unicode="&#x415;" horiz-adv-x="656" vert-adv-y="1301" 
d="M633 162q-22 -92 -25 -165q-124 3 -292 3t-292 -3v17l72 5q17 1 23.5 7t6.5 28v503q0 24 -5.5 34.5t-19.5 11.5l-73 7v18q81 -3 269 -3q190 0 269 3q-3 -31 -3 -74q0 -33 2 -65h-13q-22 55 -34 78.5t-22 30.5t-27 7h-232q-17 0 -23 -9.5t-6 -32.5v-230h225q17 0 25 5.5
t12 24.5l13 70h20q-3 -59 -3 -120q0 -60 3 -120h-12l-22 78q-7 22 -20 30.5t-39 8.5h-202v-249q0 -22 8 -30.5t34 -8.5h222q30 0 50.5 9.5t42 39.5t48.5 91h20z" />
    <glyph glyph-name="afii10024" unicode="&#x416;" horiz-adv-x="1010" vert-adv-y="1301" 
d="M467 304q-37 0 -62 -7.5t-54.5 -34.5t-89.5 -113t-101 -153q-31 4 -91 4q-41 0 -66 -4l1 18l35 5q20 3 40 16.5t32 31.5q67 101 116 165t80.5 83.5t83.5 19.5q-34 13 -56.5 34.5t-74.5 115.5q-56 102 -80 102q-11 0 -19 -19q-16 -37 -50 -37q-18 0 -31 16t-13 34
q0 21 18 37.5t46 16.5q40 0 77 -39.5t80 -121.5q42 -79 79 -107.5t100 -35.5v218q0 30 -7 39.5t-24 12.5l-54 8l-3 17q35 -1 131 -1q59 0 116 4l-2 -19l-44 -8q-26 -4 -31.5 -12t-5.5 -42v-217q62 8 99 36t79 107q43 82 80 121.5t77 39.5q28 0 46 -16.5t18 -37.5
q0 -18 -13 -34t-31 -16q-34 0 -50 37q-8 19 -19 19q-24 0 -80 -102q-52 -94 -74.5 -115.5t-56.5 -34.5q49 0 79.5 -17t77.5 -76.5t123 -174.5q13 -19 33.5 -32t38.5 -16l35 -5l1 -18q-25 4 -66 4q-60 0 -91 -4q-40 66 -100.5 152.5t-89.5 113.5t-54 34.5t-62 7.5v-242
q0 -18 6 -26t36 -15l51 -12v-18q-54 9 -123 9q-65 0 -133 -12v19l42 11q25 7 35 14t10 28v244z" />
    <glyph glyph-name="afii10025" unicode="&#x417;" horiz-adv-x="539" vert-adv-y="1301" 
d="M171 352q99 0 149.5 36.5t50.5 99.5q0 56 -33 89.5t-90 33.5q-48 0 -92.5 -30.5t-64.5 -86.5l-20 2l7 97q20 16 71 29t104 13q95 0 148.5 -41t53.5 -108q0 -42 -25.5 -70t-80.5 -58q152 -42 152 -173q0 -86 -75 -143.5t-183 -57.5q-96 0 -159 32t-63 77q0 22 13 36t33 14
q36 0 47 -39q13 -46 48 -71t87 -25q72 0 119 49t47 123q0 73 -39 112.5t-118 39.5q-35 0 -87 -6v26z" />
    <glyph glyph-name="afii10026" unicode="&#x418;" horiz-adv-x="760" vert-adv-y="1301" 
d="M201 105v-37q0 -25 4 -34.5t17 -11.5l62 -10v-16q-53 4 -111 4q-103 0 -153 -4v16l77 14q16 3 21 12t5 30v500q0 20 -5 28.5t-17 9.5l-53 6v16q38 -4 171 -4q43 0 79 4v-16l-76 -10q-13 -2 -17 -9t-4 -26v-429l359 412v18q0 20 -5 28.5t-17 9.5l-53 6v16q38 -4 169 -4
q40 0 76 4v-16l-71 -10q-13 -2 -17 -9t-4 -26v-499q0 -21 4.5 -30t22.5 -12l77 -14v-16q-50 4 -153 4q-58 0 -111 -4v16l62 10q12 2 16 12t4 34v445z" />
    <glyph glyph-name="afii10027" unicode="&#x419;" horiz-adv-x="760" vert-adv-y="1301" 
d="M392 691q-71 0 -111.5 20t-40.5 54q0 18 12.5 31t32.5 13q13 0 26.5 -10t22.5 -27q19 -35 30.5 -44.5t25.5 -9.5q27 0 51 43q15 28 26.5 38t28.5 10q18 0 30.5 -13t12.5 -31q0 -34 -40 -54t-107 -20zM201 105v-37q0 -25 4 -34.5t17 -11.5l62 -10v-16q-53 4 -111 4
q-103 0 -153 -4v16l77 14q16 3 21 12t5 30v500q0 20 -5 28.5t-17 9.5l-53 6v16q38 -4 171 -4q43 0 79 4v-16l-76 -10q-13 -2 -17 -9t-4 -26v-429l359 412v18q0 20 -5 28.5t-17 9.5l-53 6v16q38 -4 169 -4q40 0 76 4v-16l-71 -10q-13 -2 -17 -9t-4 -26v-499q0 -21 4.5 -30
t22.5 -12l77 -14v-16q-50 4 -153 4q-58 0 -111 -4v16l62 10q12 2 16 12t4 34v445z" />
    <glyph glyph-name="afii10028" unicode="&#x41a;" horiz-adv-x="660" vert-adv-y="1301" 
d="M652 -3q-20 3 -102 3q-29 0 -54 -3q-26 44 -95 144.5t-104.5 130.5t-95.5 30v-216q0 -32 6 -44t22 -14l63 -10v-21q-52 3 -127 3q-87 0 -126 -3v21l63 10q13 2 17 12.5t4 45.5v448q0 55 -21 58l-63 10v21q39 -3 126 -3q33 0 127 3v-21l-63 -10q-28 -4 -28 -58v-206
q64 17 95 41t58 72q60 107 78.5 133t43.5 43.5t54 17.5q24 0 42.5 -16.5t18.5 -40.5q0 -19 -12.5 -33t-31.5 -14q-35 0 -50 37q-8 19 -16 19q-7 0 -20.5 -10t-27 -31.5t-47.5 -83.5q-38 -69 -57.5 -90t-61.5 -39q52 0 76.5 -14.5t50.5 -42.5t122 -167q43 -62 67.5 -75.5
t68.5 -18.5v-18z" />
    <glyph glyph-name="afii10029" unicode="&#x41b;" horiz-adv-x="677" vert-adv-y="1301" 
d="M320 564l-176 -512q-3 -10 -3 -16q0 -8 6 -12t25 -5l70 -5v-16q-19 2 -123 2t-123 -2v16l63 5q33 3 46 37l224 604h29l221 -597q7 -17 13 -23t22 -11l55 -17v-15q-51 3 -131 3t-131 -3v15l66 10q19 3 26.5 7t7.5 12q0 6 -5 20z" />
    <glyph glyph-name="afii10030" unicode="&#x41c;" horiz-adv-x="833" vert-adv-y="1301" 
d="M825 -3q-96 3 -143 3q-62 0 -143 -3v16l60 12q23 5 29 15t6 39v467l-224 -554l-266 597v-516q0 -47 30 -50l92 -10v-16q-60 3 -129 3q-51 0 -130 -3v16l55 10q38 7 45.5 16.5t7.5 33.5v528l-91 11v16q17 -3 96 -3q67 0 92 3l222 -496l202 496q49 -3 98 -3q48 0 90 3v-16
l-62 -13q-29 -6 -40 -18t-11 -41v-454q0 -31 5.5 -41.5t23.5 -14.5l85 -17v-16z" />
    <glyph glyph-name="afii10031" unicode="&#x41d;" horiz-adv-x="760" vert-adv-y="1301" 
d="M560 568q0 20 -5 28.5t-17 9.5l-53 6v16q38 -4 169 -4q40 0 76 4v-16l-71 -10q-13 -2 -17 -9t-4 -26v-499q0 -21 4.5 -30t22.5 -12l77 -14v-16q-50 4 -153 4q-58 0 -111 -4v16l62 10q12 2 16 12t4 34v231h-359v-231q0 -25 4 -34.5t17 -11.5l62 -10v-16q-53 4 -111 4
q-103 0 -153 -4v16l77 14q16 3 21 12t5 30v500q0 20 -5 28.5t-17 9.5l-53 6v16q38 -4 171 -4q43 0 79 4v-16l-76 -10q-13 -2 -17 -9t-4 -26v-239h359v240z" />
    <glyph glyph-name="afii10032" unicode="&#x41e;" horiz-adv-x="781" vert-adv-y="1301" 
d="M389 -16q-153 0 -248 91t-95 231q0 136 97 232.5t260 96.5q138 0 234 -92.5t96 -230.5q0 -147 -95 -237.5t-249 -90.5zM136 299q0 -119 71.5 -208t177.5 -89q127 0 193.5 78t66.5 226q0 138 -70.5 224t-185.5 86q-82 0 -140.5 -44t-85.5 -119.5t-27 -153.5z" />
    <glyph glyph-name="afii10033" unicode="&#x41f;" horiz-adv-x="751" vert-adv-y="1301" 
d="M201 595v-527q0 -25 4 -34.5t17 -11.5l62 -10v-16q-50 4 -138 4q-79 0 -126 -4v16l77 14q16 3 21 12t5 30v500q0 20 -5 28.5t-17 9.5l-53 6v16q119 -3 341 -3q229 0 341 3v-16l-71 -10q-13 -2 -17 -9t-4 -26v-499q0 -21 4.5 -30t22.5 -12l77 -14v-16q-47 4 -126 4
q-88 0 -138 -4v16l62 10q12 2 16 12t4 34v527h-359z" />
    <glyph glyph-name="afii10034" unicode="&#x420;" horiz-adv-x="563" vert-adv-y="1301" 
d="M21 625q97 0 132 2l142 8q16 1 31 1q112 0 161 -57t49 -127q0 -78 -56.5 -132.5t-138.5 -54.5q-63 0 -96 39l6 6q26 -9 54 -9q61 0 102.5 39.5t41.5 107.5q0 66 -46.5 112.5t-146.5 46.5q-35 0 -53 -8v-538q0 -15 6.5 -21.5t28.5 -11.5l73 -16v-16q-84 4 -135 4
q-35 0 -135 -3v16l56 8q15 3 20 11t5 27v477q0 38 -23.5 51t-77.5 19v19z" />
    <glyph glyph-name="afii10035" unicode="&#x421;" horiz-adv-x="635" vert-adv-y="1301" 
d="M601 138q-11 -61 -31 -129q-64 -25 -186 -25q-157 0 -249 86.5t-92 228.5q0 87 43.5 166t118 124.5t160.5 45.5q88 0 131 -8t83 -33q6 -48 5 -99h-19q-20 58 -67.5 88.5t-114.5 30.5q-105 0 -174 -86.5t-69 -223.5q0 -148 61.5 -223t182.5 -75q139 0 204 132h13z" />
    <glyph glyph-name="afii10036" unicode="&#x422;" horiz-adv-x="615" vert-adv-y="1301" 
d="M42 646q7 26 15 26q7 0 19 -22q9 -18 17 -21.5t31 -3.5h387q36 0 47 5.5t21 28.5q6 14 15 14q13 0 13 -20l-2 -158q0 -16 -8 -16q-11 0 -18 29q-11 49 -27 68t-69 19h-125v-515q0 -27 6.5 -36t27.5 -14l78 -17v-16q-53 3 -156 3q-132 0 -156 -3v16l70 14q29 6 38 17.5
t9 36.5v514h-123q-33 1 -54 -15t-61 -73q-18 -26 -26 -26q-5 0 -5 11t5 32z" />
    <glyph glyph-name="afii10037" unicode="&#x423;" horiz-adv-x="656" vert-adv-y="1301" 
d="M310 99l-207 441q-30 66 -80 66h-29v21q84 -2 126 -2q89 0 145 2v-25h-68q-23 0 -23 -18q0 -10 6 -23l171 -389l175 357q14 28 14 45q0 19 -20.5 27.5t-66.5 8.5v17q61 -2 110 -2q65 0 102 2v-19q-32 0 -48 -10.5t-38 -51.5l-246 -456q-31 -57 -63 -81t-76 -24
q-31 0 -50.5 17t-19.5 41q0 18 12 32t29 14q29 0 51 -36q13 -21 32 -21q13 0 21 11z" />
    <glyph glyph-name="afii10038" unicode="&#x424;" horiz-adv-x="736" vert-adv-y="1301" 
d="M218 -4v22l73 10q21 2 27 13.5t6 37.5v29q-141 0 -209.5 53.5t-68.5 166.5q0 100 73.5 157t204.5 57q0 57 -22 60l-86 12v14q68 -3 150 -3q113 0 153 3v-15l-77 -11q-18 -2 -24 -16t-6 -44q130 0 203.5 -57t73.5 -157q0 -114 -69.5 -166.5t-208.5 -53.5v-30
q0 -28 8 -38.5t35 -15.5l63 -11v-17q-56 4 -141 4q-80 0 -158 -4zM411 523v-391q96 0 143 46t47 146q0 185 -190 199zM324 523q-190 -14 -190 -199q0 -100 47 -146t143 -46v391z" />
    <glyph glyph-name="afii10039" unicode="&#x425;" horiz-adv-x="698" vert-adv-y="1301" 
d="M336 266l-125 -162q-21 -28 -21 -47q0 -17 16 -26.5t36 -11.5l61 -7v-16q-55 4 -149 4q-80 0 -149 -4v16l64 10q25 5 46.5 22t48.5 52l152 197l-182 254q-27 36 -37.5 46t-24.5 12l-67 8v16q57 -4 198 -4q71 0 111 4v-16l-61 -10q-35 -5 -35 -27q0 -16 21 -45l126 -174
l137 181q14 18 14 32q0 22 -35 30l-57 13v16q54 -4 124 -4q96 0 123 4v-16l-52 -10q-34 -6 -82 -70l-152 -202l190 -251q41 -55 69 -59l64 -9v-16q-62 4 -153 4q-73 0 -153 -4v16l46 6q28 4 38.5 8.5t10.5 12.5q0 10 -16 32z" />
    <glyph glyph-name="afii10040" unicode="&#x426;" horiz-adv-x="753" vert-adv-y="1301" 
d="M726 615l-64 -18q-23 -6 -31 -18.5t-8 -37.5v-457q0 -46 16 -57t62 -12q25 0 25 -33q1 -40 11 -76.5t10 -38.5q0 -5 -7 -5q-12 0 -21 19q-26 57 -44 81t-39.5 31t-65.5 7h-545v12l51 10q29 5 29 33v518q0 20 -17 25l-64 18v14q97 -5 128 -5q70 0 135 2v-14l-87 -23
q-16 -4 -16 -51v-504h360v539q0 21 -17 26l-67 18l1 13q75 -6 186 -6q37 0 79 1v-11z" />
    </font>
</defs>
</svg>
